<?xml version="1.0" standalone="no"?>
<!DOCTYPE svg PUBLIC "-//W3C//DTD SVG 1.1//EN" "http://www.w3.org/Graphics/SVG/1.1/DTD/svg11.dtd" >
<svg xmlns="http://www.w3.org/2000/svg" xmlns:xlink="http://www.w3.org/1999/xlink" version="1.1">
<metadata>
Created by FontForge 20170731 at Mon May 15 16:25:05 2017
 By Aleksey,,,
Copyright 2010, 2012, 2014 Adobe Systems Incorporated (http://www.adobe.com/), with Reserved Font Name `Source'.
</metadata>
<defs>
<font id="SourceSansPro-Black" horiz-adv-x="0" >
  <font-face 
    font-family="Source Sans Pro Black"
    font-weight="900"
    font-stretch="normal"
    units-per-em="1000"
    panose-1="2 11 8 3 3 4 3 2 2 4"
    ascent="750"
    descent="-250"
    x-height="500"
    cap-height="650"
    bbox="-458 -325 2156 1024"
    underline-thickness="50"
    underline-position="-150"
    unicode-range="U+0020-1F16B"
  />
<missing-glyph horiz-adv-x="704" 
d="M76 0v660h552v-660h-552zM288 104h128l-26 56l-36 96h-4l-36 -96zM350 424h4l40 96l18 36h-120l18 -36zM188 172l82 168l-82 168v-336zM516 172v336l-82 -168z" />
    <glyph glyph-name="f_f" unicode="ff" horiz-adv-x="688" 
d="M416 0v366h-156v-366h-172v366h-66v128l66 5v7q0 38 10.5 73t34.5 61.5t62.5 42t94.5 15.5q35 0 63 -5.5t45 -12.5l-30 -126q-11 5 -23 7.5t-33 2.5t-36.5 -13t-15.5 -43v-8h156v6q0 40 10 76.5t33.5 64.5t61 44.5t93.5 16.5q35 0 62 -6t44 -12l-30 -126q-12 5 -25 7.5
t-25 2.5q-24 0 -38 -13.5t-14 -48.5v-12h84v-134h-84v-366h-172z" />
    <glyph glyph-name="f_t" unicode="ft" horiz-adv-x="724" 
d="M88 0v366h-66v128l66 5v7q0 40 10 76.5t33.5 64.5t61 44.5t93.5 16.5q35 0 62 -6t44 -12l-30 -126q-12 5 -25 7.5t-25 2.5q-24 0 -38 -13.5t-14 -48.5v-12h154l20 130h142v-130h114v-134h-114v-171q0 -42 18 -57.5t42 -15.5q12 0 23.5 2.5t20.5 5.5l26 -124
q-20 -6 -48 -12t-70 -6q-49 0 -83.5 14.5t-57 41.5t-33 64.5t-10.5 83.5v174h-144v-366h-172z" />
    <glyph glyph-name="f_f_t" unicode="fft" horiz-adv-x="1052" 
d="M88 0v366h-66v128l66 5v7q0 38 10.5 73t34.5 61.5t62.5 42t94.5 15.5q35 0 63 -5.5t45 -12.5l-30 -126q-11 5 -23 7.5t-33 2.5t-36.5 -13t-15.5 -43v-8h156v6q0 40 10 76.5t33.5 64.5t61 44.5t93.5 16.5q35 0 62 -6t44 -12l-30 -126q-12 5 -25 7.5t-25 2.5
q-24 0 -38 -13.5t-14 -48.5v-12h154l20 130h142v-130h114v-134h-114v-171q0 -42 18 -57.5t42 -15.5q12 0 23.5 2.5t20.5 5.5l26 -124q-20 -6 -48 -12t-70 -6q-49 0 -83.5 14.5t-57 41.5t-33 64.5t-10.5 83.5v174h-144v-366h-172v366h-156v-366h-172z" />
    <glyph glyph-name=".notdef" horiz-adv-x="704" 
d="M76 0v660h552v-660h-552zM288 104h128l-26 56l-36 96h-4l-36 -96zM350 424h4l40 96l18 36h-120l18 -36zM188 172l82 168l-82 168v-336zM516 172v336l-82 -168z" />
    <glyph glyph-name=".null" 
 />
    <glyph glyph-name="nonmarkingreturn" horiz-adv-x="333" 
 />
    <glyph glyph-name="space" unicode=" " horiz-adv-x="200" 
 />
    <glyph glyph-name="exclam" unicode="!" horiz-adv-x="360" 
d="M124 244l-24 278l-6 148h172l-6 -148l-24 -278h-112zM180 -12q-44 0 -72 30t-28 74t28 74t72 30t72 -30t28 -74t-28 -74t-72 -30z" />
    <glyph glyph-name="quotedbl" unicode="&#x22;" horiz-adv-x="580" 
d="M114 324l-34 212l-6 148h172l-6 -148l-34 -212h-92zM374 324l-34 212l-6 148h172l-6 -148l-34 -212h-92z" />
    <glyph glyph-name="numbersign" unicode="#" horiz-adv-x="540" 
d="M84 0l22 180h-72v108h84l12 96h-76v108h90l20 158h96l-18 -158h92l20 158h96l-18 -158h78v-108h-92l-12 -96h84v-108h-96l-22 -180h-98l22 180h-92l-22 -180h-98zM216 288h92l12 96h-92z" />
    <glyph glyph-name="dollar" unicode="$" horiz-adv-x="540" 
d="M212 -110v100q-43 5 -91.5 23.5t-86.5 52.5l74 116q41 -30 73.5 -43t64.5 -13q38 0 54 13.5t16 42.5q0 20 -19 35.5t-48 30.5t-62 31.5t-62 39.5t-48 54t-19 75q0 76 40.5 126t113.5 66v104h112v-102q48 -8 84.5 -30t66.5 -54l-85 -98q-27 24 -51.5 36t-52.5 12
q-32 0 -48 -11t-16 -41q0 -19 19 -33t48 -28t62 -30t62 -39t48 -55t19 -77q0 -73 -38.5 -126t-117.5 -72v-106h-112z" />
    <glyph glyph-name="percent" unicode="%" horiz-adv-x="870" 
d="M190 248q-36 0 -67 14t-53.5 41t-35 65.5t-12.5 87.5t12.5 87t35 64.5t53.5 40.5t67 14t66.5 -14t53 -40.5t35.5 -64.5t13 -87t-13 -87.5t-35.5 -65.5t-53 -41t-66.5 -14zM190 342q20 0 35 24t15 90q0 33 -4 54.5t-11 34.5t-16 18t-19 5t-19 -5t-16 -18t-11 -34.5
t-4 -54.5q0 -66 15 -90t35 -24zM214 -12l348 674h96l-348 -674h-96zM680 -12q-36 0 -67 14t-53.5 41t-35 65.5t-12.5 87.5t12.5 87t35 64.5t53.5 40.5t67 14t66.5 -14t53 -40.5t35.5 -64.5t13 -87t-13 -87.5t-35.5 -65.5t-53 -41t-66.5 -14zM680 82q20 0 35 24t15 90
q0 33 -4 54.5t-11 34.5t-16 18t-19 5t-19 -5t-16 -18t-11 -34.5t-4 -54.5q0 -66 15 -90t35 -24z" />
    <glyph glyph-name="ampersand" unicode="&#x26;" horiz-adv-x="690" 
d="M246 -12q-57 0 -99 15.5t-69.5 41.5t-41.5 60t-14 71q0 34 9 61.5t25 49t37 39t44 31.5q-19 34 -29 67t-10 62q0 35 13 67t37.5 56t59 38.5t78.5 14.5q78 0 125 -41.5t47 -112.5q0 -32 -11 -58t-29 -48t-41.5 -40.5t-48.5 -34.5q25 -26 54 -50.5t60 -46.5q23 30 41 66
t29 78h156q-17 -57 -43 -110t-63 -103q59 -29 108 -35l-40 -138q-43 8 -86.5 24t-87.5 39q-43 -29 -95 -46t-115 -17zM239 486q0 -31 18 -65q31 18 51 38t20 49q0 42 -38 42q-20 0 -35.5 -16t-15.5 -48zM268 118q29 0 64 16q-68 54 -118 113q-14 -14 -22 -29t-8 -32
q0 -30 22.5 -49t61.5 -19z" />
    <glyph glyph-name="quotesingle" unicode="'" horiz-adv-x="320" 
d="M114 324l-34 212l-6 148h172l-6 -148l-34 -212h-92z" />
    <glyph glyph-name="parenleft" unicode="(" horiz-adv-x="360" 
d="M200 -180q-63 103 -97.5 214.5t-34.5 243.5t34.5 243t97.5 215l108 -44q-54 -98 -78 -204t-24 -210t24 -210t78 -204z" />
    <glyph glyph-name="parenright" unicode=")" horiz-adv-x="360" 
d="M160 -180l-108 44q54 98 78 204t24 210t-24 210t-78 204l108 44q63 -104 97.5 -215t34.5 -243t-34.5 -243.5t-97.5 -214.5z" />
    <glyph glyph-name="asterisk" unicode="*" horiz-adv-x="472" 
d="M152 321l-70 51l60 107l-112 52l27 83l121 -24l14 122h88l14 -123l121 25l27 -83l-113 -52l61 -107l-70 -51l-84 91z" />
    <glyph glyph-name="plus" unicode="+" horiz-adv-x="540" 
d="M208 90v180h-174v120h174v180h124v-180h174v-120h-174v-180h-124z" />
    <glyph glyph-name="comma" unicode="," horiz-adv-x="320" 
d="M80 -204l-34 90q61 20 91.5 53t29.5 69h-7q-39 0 -69.5 24.5t-30.5 69.5q0 42 30 68t74 26q56 0 85 -41t29 -115q0 -89 -50 -153t-148 -91z" />
    <glyph glyph-name="hyphen" unicode="-" horiz-adv-x="340" 
d="M44 194v120h252v-120h-252z" />
    <glyph glyph-name="period" unicode="." horiz-adv-x="320" 
d="M160 -12q-44 0 -72 30t-28 74t28 74t72 30t72 -30t28 -74t-28 -74t-72 -30z" />
    <glyph glyph-name="slash" unicode="/" horiz-adv-x="334" 
d="M14 -160l176 870h110l-176 -870h-110z" />
    <glyph glyph-name="zero" unicode="0" horiz-adv-x="540" 
d="M270 -12q-53 0 -96 21.5t-74.5 63.5t-48.5 104t-17 143t17 142.5t48.5 102t74.5 61t96 20.5q52 0 95.5 -20.5t75 -61.5t48.5 -102t17 -142t-17 -143t-48.5 -104t-75 -63.5t-95.5 -21.5zM270 120q15 0 28.5 7.5t23.5 29.5t16 61t6 102t-6 101t-16 59t-23.5 27.5t-28.5 6.5
t-28.5 -6.5t-23.5 -27.5t-16 -59t-6 -101t6 -102t16 -61t23.5 -29.5t28.5 -7.5z" />
    <glyph glyph-name="one" unicode="1" horiz-adv-x="540" 
d="M66 0v138h136v328h-120v106q54 11 92 25t74 37h126v-496h114v-138h-422z" />
    <glyph glyph-name="two" unicode="2" horiz-adv-x="540" 
d="M36 0v98q56 52 104.5 98t84.5 86.5t56.5 77t20.5 68.5q0 43 -21.5 63.5t-56.5 20.5q-32 0 -56.5 -18.5t-47.5 -41.5l-92 92q25 26 49 45.5t50.5 32t56 18.5t64.5 6q48 0 88 -15t69 -42t45 -65.5t16 -85.5q0 -38 -16.5 -77.5t-42.5 -78.5t-58.5 -76t-64.5 -70
q24 3 54.5 5.5t51.5 2.5h106v-144h-460z" />
    <glyph glyph-name="three" unicode="3" horiz-adv-x="540" 
d="M246 -12q-78 0 -134 24t-92 66l78 108q29 -27 62.5 -43.5t67.5 -16.5q42 0 67 15t25 45q0 18 -6 32t-23 24t-48 15t-81 5v120q40 0 66.5 5t42.5 14.5t22.5 22.5t6.5 30q0 58 -66 58q-32 0 -57 -13t-55 -39l-86 104q47 39 97 60.5t109 21.5q105 0 167.5 -46.5t62.5 -132.5
q0 -92 -102 -137v-4q54 -17 88 -54.5t34 -97.5q0 -45 -20 -79.5t-53.5 -58.5t-78.5 -36t-94 -12z" />
    <glyph glyph-name="four" unicode="4" horiz-adv-x="540" 
d="M290 0v142h-270v120l216 372h214v-362h68v-130h-68v-142h-160zM182 272h108v72q0 16 0.5 35.5t1.5 39.5t2 39.5t2 35.5h-4q-12 -29 -25 -57t-27 -57z" />
    <glyph glyph-name="five" unicode="5" horiz-adv-x="540" 
d="M252 -12q-78 0 -134.5 25.5t-95.5 64.5l76 108q29 -26 61 -43t67 -17q45 0 69.5 20t24.5 62q0 41 -24 61.5t-62 20.5q-13 0 -23 -1.5t-19.5 -4.5t-20.5 -9t-25 -15l-74 48l16 326h376v-144h-228l-8 -92q17 6 30.5 8t29.5 2q41 0 78 -12t65 -36t44.5 -61t16.5 -87
q0 -53 -19.5 -95t-52.5 -70.5t-76.5 -43.5t-91.5 -15z" />
    <glyph glyph-name="six" unicode="6" horiz-adv-x="540" 
d="M286 -12q-46 0 -90.5 17.5t-79.5 55.5t-56.5 98.5t-21.5 146.5t22 150t58 106t83.5 63t98.5 21q68 0 117 -24t81 -56l-90 -102q-15 17 -42 30.5t-54 13.5q-23 0 -43.5 -8.5t-36 -29t-25 -53t-12.5 -80.5q12 15 27 27t31.5 20t32 12t28.5 4q40 0 75.5 -11.5t61 -35.5
t40.5 -61t15 -88t-17.5 -91t-47.5 -68t-70 -42.5t-85 -14.5zM282 116q27 0 47.5 19t20.5 69q0 23 -6 37.5t-15.5 23t-22.5 12t-26 3.5q-23 0 -44.5 -12.5t-36.5 -41.5q5 -33 14.5 -54.5t20.5 -34t23.5 -17t24.5 -4.5z" />
    <glyph glyph-name="seven" unicode="7" horiz-adv-x="540" 
d="M152 0q4 75 14 138t28.5 121t48 114t73.5 117h-272v144h454v-106q-55 -64 -87 -120t-50 -115.5t-25.5 -129.5t-11.5 -163h-172z" />
    <glyph glyph-name="eight" unicode="8" horiz-adv-x="540" 
d="M268 -12q-48 0 -89.5 12.5t-72 35.5t-47.5 55t-17 71q0 56 29.5 91t74.5 59v4q-38 29 -61 64.5t-23 85.5q0 42 15.5 75.5t44 56.5t67 35.5t85.5 12.5q44 0 80.5 -12.5t62.5 -35t40.5 -55.5t14.5 -73q0 -44 -23.5 -77.5t-57.5 -55.5v-4q47 -25 78 -64.5t31 -102.5
q0 -38 -16.5 -70.5t-47 -56.5t-73.5 -37.5t-95 -13.5zM306 378q28 40 28 80q0 33 -17 51.5t-47 18.5q-23 0 -40.5 -14.5t-17.5 -47.5q0 -32 24.5 -51t69.5 -37zM272 106q29 0 49 15t20 51q0 17 -8 30t-23.5 23.5t-37.5 20.5t-50 22q-14 -17 -23.5 -39.5t-9.5 -46.5
q0 -38 25 -57t58 -19z" />
    <glyph glyph-name="nine" unicode="9" horiz-adv-x="540" 
d="M258 354q23 0 44.5 12.5t36.5 41.5q-5 33 -14.5 54.5t-20.5 34t-23.5 17t-24.5 4.5q-27 0 -47.5 -19t-20.5 -69q0 -23 6 -37.5t15.5 -23t22 -12t26.5 -3.5zM238 -12q-68 0 -117 24t-81 56l90 102q15 -17 42 -30.5t54 -13.5q24 0 44 8.5t35.5 29t25.5 53t12 80.5
q-12 -15 -27 -27t-31.5 -20t-32 -12t-28.5 -4q-41 0 -76 11.5t-60.5 35.5t-40.5 61t-15 88t17.5 91t47.5 68t70 42.5t85 14.5q46 0 90.5 -17.5t79.5 -55.5t56.5 -98.5t21.5 -146.5t-22 -150t-58 -106t-83.5 -63t-98.5 -21z" />
    <glyph glyph-name="colon" unicode=":" horiz-adv-x="320" 
d="M160 298q-44 0 -72 30t-28 74t28 74t72 30t72 -30t28 -74t-28 -74t-72 -30zM160 -12q-44 0 -72 30t-28 74t28 74t72 30t72 -30t28 -74t-28 -74t-72 -30z" />
    <glyph glyph-name="semicolon" unicode=";" horiz-adv-x="320" 
d="M160 298q-44 0 -72 30t-28 74t28 74t72 30t72 -30t28 -74t-28 -74t-72 -30zM80 -204l-34 90q61 20 91.5 53t29.5 69h-7q-39 0 -69.5 24.5t-30.5 69.5q0 42 30 68t74 26q56 0 85 -41t29 -115q0 -89 -50 -153t-148 -91z" />
    <glyph glyph-name="less" unicode="&#x3c;" horiz-adv-x="540" 
d="M506 94l-472 180v116l472 180v-140l-162 -50l-136 -46v-4l136 -46l162 -50v-140z" />
    <glyph glyph-name="equal" unicode="=" horiz-adv-x="540" 
d="M34 390v120h472v-120h-472zM34 151v120h472v-120h-472z" />
    <glyph glyph-name="greater" unicode="&#x3e;" horiz-adv-x="540" 
d="M34 94v140l162 50l136 46v4l-136 46l-162 50v140l472 -180v-116z" />
    <glyph glyph-name="question" unicode="?" horiz-adv-x="478" 
d="M152 244q-5 32 2 59t20.5 49.5t31 41.5t32.5 36t25.5 32.5t10.5 31.5q0 27 -16.5 38.5t-39.5 11.5q-26 0 -44 -12t-38 -30l-94 86q37 42 87.5 68t110.5 26q41 0 77 -10t63 -31t42.5 -54.5t15.5 -80.5q0 -30 -11 -53.5t-26.5 -43.5t-34 -38t-33.5 -37t-24.5 -41t-6.5 -49
h-150zM226 -12q-44 0 -72 30t-28 74t28 74t72 30t72 -30t28 -74t-28 -74t-72 -30z" />
    <glyph glyph-name="at" unicode="@" horiz-adv-x="924" 
d="M438 -178q-76 0 -146.5 23t-124.5 70t-86.5 119.5t-32.5 171.5q0 106 37 193.5t100 149t147.5 95.5t179.5 34q83 0 150.5 -27t115 -75.5t73 -116t25.5 -147.5q0 -70 -21.5 -122t-56 -86.5t-77 -52t-83.5 -17.5q-45 0 -78 20t-42 56h-2q-10 -15 -24 -27t-30.5 -21
t-33.5 -13.5t-32 -4.5q-62 0 -99 42.5t-37 111.5q0 48 16 93t44 80t65.5 56t80.5 21q24 0 43 -11.5t31 -38.5h2l16 42h104l-48 -228q-18 -74 42 -74q22 0 43 12t36.5 34.5t25 54t9.5 69.5q0 51 -14 99t-46 85.5t-84 60.5t-128 23q-63 0 -123.5 -26t-107.5 -74t-76 -115.5
t-29 -150.5q0 -74 24 -128t64.5 -89t93 -52t108.5 -17q36 0 77 10.5t71 25.5l36 -92q-47 -24 -95.5 -35t-102.5 -11zM434 150q14 0 26.5 8.5t29.5 31.5l22 126q-5 11 -15.5 17.5t-24.5 6.5q-20 0 -35.5 -13t-26 -32.5t-16.5 -43t-6 -43.5q0 -58 46 -58z" />
    <glyph glyph-name="A" unicode="A" horiz-adv-x="584" 
d="M240 316l-11 -45h120l-11 45q-12 47 -24 102t-24 104h-4q-11 -50 -22.5 -104.5t-23.5 -101.5zM-10 0l198 650h208l198 -650h-182l-32 138h-182l-32 -138h-176z" />
    <glyph glyph-name="B" unicode="B" horiz-adv-x="612" 
d="M72 0v650h234q51 0 96 -7.5t78 -25.5t52.5 -49.5t19.5 -79.5q0 -21 -6 -42.5t-16.5 -41t-25.5 -34.5t-34 -22v-4q47 -14 79.5 -50.5t32.5 -101.5q0 -50 -20.5 -86.5t-55 -60t-81.5 -34.5t-99 -11h-254zM244 396h58q42 0 62 18t20 48t-20 43t-62 13h-58v-122zM244 132h70
q100 0 100 72q0 36 -24.5 51t-75.5 15h-70v-138z" />
    <glyph glyph-name="C" unicode="C" horiz-adv-x="586" 
d="M354 -12q-62 0 -118.5 20.5t-99 62t-67.5 104t-25 145.5q0 82 26 145.5t69.5 107t100 66.5t118.5 23q65 0 116 -25.5t86 -60.5l-90 -110q-24 21 -49.5 34.5t-58.5 13.5q-29 0 -54.5 -13t-45 -37t-31 -59t-11.5 -79q0 -92 38.5 -141t101.5 -49q38 0 67.5 16.5t50.5 39.5
l90 -108q-42 -48 -96.5 -72t-117.5 -24z" />
    <glyph glyph-name="D" unicode="D" horiz-adv-x="642" 
d="M72 0v650h192q74 0 135.5 -18t105.5 -57t68.5 -100t24.5 -147t-24 -148t-67.5 -102t-103 -59t-129.5 -19h-202zM244 138h10q35 0 66 8.5t53.5 29.5t35.5 58t13 94t-13 93t-35.5 56t-53.5 27.5t-66 7.5h-10v-374z" />
    <glyph glyph-name="E" unicode="E" horiz-adv-x="556" 
d="M72 0v650h420v-144h-248v-102h212v-144h-212v-116h258v-144h-430z" />
    <glyph glyph-name="F" unicode="F" horiz-adv-x="536" 
d="M72 0v650h424v-144h-252v-124h216v-144h-216v-238h-172z" />
    <glyph glyph-name="G" unicode="G" horiz-adv-x="646" 
d="M372 -12q-68 0 -128 20.5t-104.5 62t-70 104t-25.5 145.5q0 82 26 145.5t70.5 107t103.5 66.5t124 23q72 0 124.5 -25.5t87.5 -60.5l-90 -110q-24 21 -50.5 34.5t-65.5 13.5q-33 0 -61 -13t-49 -37t-32.5 -59t-11.5 -79q0 -92 41 -141t129 -49q14 0 27.5 3t22.5 9v90h-96
v140h248v-310q-35 -33 -93 -56.5t-127 -23.5z" />
    <glyph glyph-name="H" unicode="H" horiz-adv-x="682" 
d="M72 0v650h172v-242h194v242h172v-650h-172v258h-194v-258h-172z" />
    <glyph glyph-name="I" unicode="I" horiz-adv-x="316" 
d="M72 0v650h172v-650h-172z" />
    <glyph glyph-name="J" unicode="J" horiz-adv-x="520" 
d="M232 -12q-80 0 -133 30t-89 93l116 87q17 -32 39 -47t43 -15q17 0 30.5 4.5t22.5 16.5t14 32t5 51v410h172v-424q0 -49 -13.5 -92t-40.5 -75.5t-68.5 -51.5t-97.5 -19z" />
    <glyph glyph-name="K" unicode="K" horiz-adv-x="628" 
d="M72 0v650h172v-242h4l164 242h188l-194 -264l232 -386h-188l-144 250l-62 -88v-162h-172z" />
    <glyph glyph-name="L" unicode="L" horiz-adv-x="530" 
d="M72 0v650h172v-506h246v-144h-418z" />
    <glyph glyph-name="M" unicode="M" horiz-adv-x="776" 
d="M72 0v650h184l98 -266q9 -27 17 -56t17 -58h4q9 29 17 58t17 56l94 266h184v-650h-156v192q0 25 2.5 55t5.5 61.5t7 61.5t7 54h-4l-54 -156l-80 -215h-92l-80 215l-52 156h-4q3 -24 7 -54t7 -61.5t5.5 -61.5t2.5 -55v-192h-154z" />
    <glyph glyph-name="N" unicode="N" horiz-adv-x="672" 
d="M72 0v650h176l144 -290l62 -146h4q-3 26 -7 57t-7 63.5t-5.5 65t-2.5 62.5v188h164v-650h-176l-144 291l-62 145h-4q6 -56 14 -122t8 -126v-188h-164z" />
    <glyph glyph-name="O" unicode="O" horiz-adv-x="692" 
d="M346 -12q-68 0 -123.5 23t-95 66.5t-61.5 107t-22 143.5t22 142.5t61.5 105t95 64.5t123.5 22q67 0 123 -22t95.5 -65t61.5 -105t22 -142t-22 -143.5t-61.5 -107t-95.5 -66.5t-123 -23zM346 136q59 0 92.5 51.5t33.5 140.5t-33.5 137.5t-92.5 48.5t-92.5 -48.5
t-33.5 -137.5t33.5 -140.5t92.5 -51.5z" />
    <glyph glyph-name="P" unicode="P" horiz-adv-x="608" 
d="M72 0v650h238q53 0 101 -10.5t84 -36t57.5 -67t21.5 -102.5q0 -60 -21.5 -103t-57.5 -70.5t-83 -41t-98 -13.5h-70v-206h-172zM244 342h62q51 0 75.5 24t24.5 68t-27 62t-77 18h-58v-172z" />
    <glyph glyph-name="Q" unicode="Q" horiz-adv-x="692" 
d="M346 128q59 0 92.5 51.5t33.5 148.5q0 89 -33.5 137.5t-92.5 48.5t-92.5 -48.5t-33.5 -137.5q0 -97 33.5 -148.5t92.5 -51.5zM566 -188q-55 0 -101.5 13.5t-84 38.5t-65.5 58.5t-47 74.5q-51 12 -92.5 39.5t-70.5 69.5t-45 98t-16 124q0 80 22 142.5t61.5 105t95 64.5
t123.5 22q67 0 123 -22t95.5 -65t61.5 -105t22 -142q0 -128 -53.5 -211t-145.5 -113q23 -32 61.5 -44t75.5 -12q21 0 40 3.5t34 8.5l30 -124q-20 -11 -51 -17.5t-73 -6.5z" />
    <glyph glyph-name="R" unicode="R" horiz-adv-x="630" 
d="M72 0v650h246q52 0 99.5 -10t83 -34t56.5 -64.5t21 -101.5q0 -70 -28.5 -116t-76.5 -72l141 -252h-192l-112 218h-66v-218h-172zM244 354h62q104 0 104 86q0 42 -26.5 58t-77.5 16h-62v-160z" />
    <glyph glyph-name="S" unicode="S" horiz-adv-x="564" 
d="M278 -12q-62 0 -127.5 22.5t-118.5 70.5l98 118q35 -28 75.5 -45.5t76.5 -17.5q39 0 56.5 12t17.5 34q0 12 -6 20t-17.5 15t-27.5 13.5t-37 14.5l-81 34q-26 10 -50 26.5t-42 39t-28.5 51.5t-10.5 64q0 42 18 78.5t50 64t76.5 43.5t97.5 16q56 0 113.5 -21t102.5 -66
l-86 -108q-33 23 -63.5 35t-66.5 12q-32 0 -50 -11t-18 -33q0 -23 25.5 -35.5t70.5 -29.5l79 -31q61 -24 94 -67t33 -111q0 -41 -17 -79t-49.5 -66.5t-79.5 -45.5t-108 -17z" />
    <glyph glyph-name="T" unicode="T" horiz-adv-x="564" 
d="M196 0v506h-172v144h516v-144h-172v-506h-172z" />
    <glyph glyph-name="U" unicode="U" horiz-adv-x="672" 
d="M338 -12q-137 0 -203.5 79.5t-66.5 246.5v336h172v-356q0 -87 23.5 -122.5t74.5 -35.5t75.5 35.5t24.5 122.5v356h166v-336q0 -167 -65 -246.5t-201 -79.5z" />
    <glyph glyph-name="V" unicode="V" horiz-adv-x="572" 
d="M182 0l-192 650h182l68 -284q14 -52 24 -102.5t24 -103.5h4q14 53 24.5 103.5t23.5 102.5l66 284h176l-192 -650h-208z" />
    <glyph glyph-name="W" unicode="W" horiz-adv-x="824" 
d="M124 0l-114 650h176l36 -284q5 -51 11 -102t11 -102h4l18 102l18 102l62 284h144l62 -284q9 -49 18 -100.5t18 -103.5h4q5 52 11 103t11 101l36 284h164l-108 -650h-218l-50 258q-8 38 -13.5 77t-10.5 75h-4q-5 -36 -10.5 -75t-13.5 -77l-48 -258h-214z" />
    <glyph glyph-name="X" unicode="X" horiz-adv-x="588" 
d="M10 0l176 334l-166 316h192l44 -106q11 -23 21.5 -49.5t24.5 -58.5h4q11 32 21 58.5t19 49.5l38 106h184l-166 -324l176 -326h-192l-52 116q-12 26 -23 52t-23 56h-4q-11 -30 -21 -56t-21 -52l-48 -116h-184z" />
    <glyph glyph-name="Y" unicode="Y" horiz-adv-x="544" 
d="M186 0v224l-196 426h184l48 -136q12 -37 24 -72t25 -73h4q13 38 25.5 73t25.5 72l48 136h180l-196 -426v-224h-172z" />
    <glyph glyph-name="Z" unicode="Z" horiz-adv-x="542" 
d="M32 0v104l266 402h-240v144h452v-104l-266 -402h268v-144h-480z" />
    <glyph glyph-name="bracketleft" unicode="[" horiz-adv-x="360" 
d="M84 -152v860h224v-90h-96v-680h96v-90h-224z" />
    <glyph glyph-name="backslash" unicode="\" horiz-adv-x="334" 
d="M210 -160l-176 870h110l176 -870h-110z" />
    <glyph glyph-name="bracketright" unicode="]" horiz-adv-x="360" 
d="M52 -152v90h96v680h-96v90h224v-860h-224z" />
    <glyph glyph-name="asciicircum" unicode="^" horiz-adv-x="540" 
d="M46 270l156 400h136l156 -400h-140l-38 110l-44 136h-4l-44 -136l-38 -110h-140z" />
    <glyph glyph-name="underscore" unicode="_" horiz-adv-x="500" 
d="M12 -146v94h476v-94h-476z" />
    <glyph glyph-name="grave" unicode="`" horiz-adv-x="560" 
d="M260 572l-190 158l116 114l158 -188z" />
    <glyph glyph-name="a" unicode="a" horiz-adv-x="536" 
d="M188 -12q-35 0 -63 12.5t-47.5 33.5t-29.5 49t-10 59q0 78 64 122.5t208 59.5q-6 52 -70 52q-27 0 -57 -10.5t-69 -31.5l-60 112q53 32 107 49t113 17q97 0 152.5 -55.5t55.5 -178.5v-278h-140l-12 48h-4q-30 -27 -63.5 -43.5t-74.5 -16.5zM248 120q21 0 34.5 9.5
t27.5 24.5v68q-62 -9 -85 -27t-23 -39q0 -36 46 -36z" />
    <glyph glyph-name="b" unicode="b" horiz-adv-x="580" 
d="M336 -12q-33 0 -65 16.5t-61 49.5h-4l-14 -54h-134v696h172v-162l-4 -72q26 24 58 37t65 13q44 0 80 -18t61.5 -51t39.5 -80t14 -104q0 -65 -17.5 -115.5t-46.5 -85t-66.5 -52.5t-77.5 -18zM294 128q30 0 52 28t22 100q0 62 -17.5 89t-52.5 27q-20 0 -35.5 -8t-32.5 -28
v-184q15 -14 31 -19t33 -5z" />
    <glyph glyph-name="c" unicode="c" horiz-adv-x="472" 
d="M284 -12q-53 0 -99 17.5t-80 51t-53.5 82.5t-19.5 111t22 111t59 82.5t85.5 51t101.5 17.5q45 0 81 -14t65 -38l-80 -110q-17 14 -29.5 19t-26.5 5q-48 0 -75 -33.5t-27 -90.5t27.5 -90.5t68.5 -33.5q21 0 41.5 9t38.5 23l66 -112q-38 -33 -82.5 -45.5t-83.5 -12.5z" />
    <glyph glyph-name="d" unicode="d" horiz-adv-x="580" 
d="M240 -12q-47 0 -84.5 18t-64 52t-41 82.5t-14.5 109.5t17.5 110t46 82.5t65.5 51.5t75 18q41 0 67 -13.5t49 -36.5l-6 72v162h172v-696h-140l-12 46h-4q-26 -26 -59.5 -42t-66.5 -16zM286 128q20 0 35 7.5t29 28.5v184q-15 14 -33 19t-35 5q-27 0 -48.5 -27t-21.5 -93
q0 -68 19.5 -96t54.5 -28z" />
    <glyph glyph-name="e" unicode="e" horiz-adv-x="526" 
d="M290 -12q-55 0 -102 17.5t-81.5 51t-54.5 82.5t-20 111q0 61 20.5 109.5t54 82.5t76.5 52t89 18q55 0 96 -19t68 -52t40.5 -77t13.5 -94q0 -23 -2.5 -43t-4.5 -29h-285q12 -45 43 -62.5t73 -17.5q26 0 50.5 7.5t51.5 22.5l56 -102q-41 -29 -90.5 -43.5t-91.5 -14.5z
M196 310h148q0 29 -14.5 50.5t-53.5 21.5q-29 0 -50.5 -17t-29.5 -55z" />
    <glyph glyph-name="f" unicode="f" horiz-adv-x="360" 
d="M88 0v366h-66v128l66 5v7q0 40 10 76.5t33.5 64.5t61 44.5t93.5 16.5q35 0 62 -6t44 -12l-30 -126q-12 5 -25 7.5t-25 2.5q-24 0 -38 -13.5t-14 -48.5v-12h84v-134h-84v-366h-172z" />
    <glyph glyph-name="g" unicode="g" horiz-adv-x="546" 
d="M240 -206q-43 0 -81 6.5t-66.5 21.5t-45.5 38.5t-17 57.5q0 59 70 96v4q-20 14 -33 34t-13 52q0 26 15 51t41 43v4q-27 18 -47.5 51t-20.5 77q0 46 18 80.5t48 57t68.5 33.5t79.5 11q44 0 80 -12h186v-124h-72q3 -9 5.5 -23t2.5 -29q0 -44 -16 -75.5t-43 -51.5t-64 -29.5
t-79 -9.5q-25 0 -56 7q-8 -7 -10 -12.5t-2 -16.5q0 -17 16 -23.5t54 -6.5h75q94 0 145.5 -30.5t51.5 -99.5q0 -41 -20.5 -74.5t-58 -57.5t-91 -37t-120.5 -13zM256 260q24 0 39 17t15 53q0 35 -15 51.5t-39 16.5t-39 -16.5t-15 -51.5q0 -36 15 -53t39 -17zM268 -100
q42 0 70 12.5t28 33.5q0 20 -17.5 25t-49.5 5h-39q-30 0 -45.5 1.5t-26.5 4.5q-9 -9 -13.5 -17t-4.5 -19q0 -24 27 -35t71 -11z" />
    <glyph glyph-name="h" unicode="h" horiz-adv-x="582" 
d="M58 0v696h172v-162l-8 -86q26 23 62.5 43.5t87.5 20.5q82 0 119 -55.5t37 -148.5v-308h-172v286q0 48 -12 64t-38 16q-24 0 -40 -10t-36 -28v-328h-172z" />
    <glyph glyph-name="i" unicode="i" horiz-adv-x="288" 
d="M58 0v500h172v-500h-172zM144 562q-42 0 -69 24t-27 62t27 62t69 24t69 -24t27 -62t-27 -62t-69 -24z" />
    <glyph glyph-name="j" unicode="j" horiz-adv-x="290" 
d="M38 -188q-35 0 -56 4t-38 10l30 126q11 -3 19 -4.5t17 -1.5q27 0 38.5 16.5t11.5 57.5v480h172v-474q0 -42 -9 -80.5t-31.5 -68.5t-60 -47.5t-93.5 -17.5zM146 562q-42 0 -69 24t-27 62t27 62t69 24t69 -24t27 -62t-27 -62t-69 -24z" />
    <glyph glyph-name="k" unicode="k" horiz-adv-x="568" 
d="M58 0v696h168v-370h4l138 174h186l-178 -208l188 -292h-186l-100 178l-52 -58v-120h-168z" />
    <glyph glyph-name="l" unicode="l" horiz-adv-x="298" 
d="M212 -12q-44 0 -73.5 13.5t-47.5 38.5t-25.5 59.5t-7.5 76.5v520h172v-526q0 -26 9.5 -35t18.5 -9h8.5t9.5 2l20 -126q-14 -6 -34.5 -10t-49.5 -4z" />
    <glyph glyph-name="m" unicode="m" horiz-adv-x="868" 
d="M58 0v500h140l12 -61h4q30 29 64.5 51t85.5 22t84.5 -20.5t53.5 -59.5q31 32 67 56t87 24q82 0 120 -55.5t38 -148.5v-308h-172v286q0 48 -12 64t-38 16q-32 0 -70 -38v-328h-172v286q0 48 -12 64t-38 16q-32 0 -70 -38v-328h-172z" />
    <glyph glyph-name="n" unicode="n" horiz-adv-x="582" 
d="M58 0v500h140l12 -60h4q30 29 68.5 50.5t89.5 21.5q82 0 119 -55.5t37 -148.5v-308h-172v286q0 48 -12 64t-38 16q-24 0 -40 -10t-36 -28v-328h-172z" />
    <glyph glyph-name="o" unicode="o" horiz-adv-x="560" 
d="M280 -12q-48 0 -93 17.5t-79.5 51t-55 82.5t-20.5 111t20.5 111t55 82.5t79.5 51t93 17.5t92.5 -17.5t79 -51t55.5 -82.5t21 -111t-21 -111t-55.5 -82.5t-79 -51t-92.5 -17.5zM280 126q39 0 55.5 33.5t16.5 90.5t-16.5 90.5t-55.5 33.5t-55.5 -33.5t-16.5 -90.5
t16.5 -90.5t55.5 -33.5z" />
    <glyph glyph-name="p" unicode="p" horiz-adv-x="580" 
d="M58 -176v676h140l12 -46h4q28 26 63 42t73 16q44 0 80 -18t61.5 -51t39 -80t13.5 -105q0 -65 -17.5 -115t-46.5 -84.5t-66.5 -52.5t-77.5 -18q-62 0 -112 50l6 -76v-138h-172zM294 128q30 0 52 28t22 100q0 62 -17.5 89t-52.5 27q-20 0 -35.5 -8t-32.5 -28v-184
q15 -14 31 -19t33 -5z" />
    <glyph glyph-name="q" unicode="q" horiz-adv-x="580" 
d="M350 -176v143l6 71q-23 -23 -54.5 -36.5t-61.5 -13.5q-47 0 -84.5 18t-64 52t-41 82.5t-14.5 109.5t17.5 110t46 82.5t65.5 51.5t75 18q40 0 70.5 -14.5t59.5 -47.5h4l14 50h134v-676h-172zM286 128q20 0 35 7.5t29 28.5v184q-15 14 -33 19t-35 5q-27 0 -48.5 -27
t-21.5 -93q0 -68 19.5 -96t54.5 -28z" />
    <glyph glyph-name="r" unicode="r" horiz-adv-x="418" 
d="M58 0v500h140l12 -86h4q28 51 66.5 74.5t75.5 23.5q23 0 37 -2.5t25 -7.5l-28 -148q-14 3 -26.5 5.5t-29.5 2.5q-27 0 -56.5 -18.5t-47.5 -65.5v-278h-172z" />
    <glyph glyph-name="s" unicode="s" horiz-adv-x="452" 
d="M212 -12q-48 0 -101.5 19t-92.5 51l76 106q68 -50 122 -50q27 0 38.5 7.5t11.5 22.5q0 10 -8 17.5t-21.5 14t-30.5 12.5t-36 14q-22 9 -44.5 21.5t-40.5 30.5t-29.5 41.5t-11.5 54.5q0 37 14.5 67t40.5 51t62.5 32.5t80.5 11.5q62 0 106.5 -20.5t77.5 -45.5l-76 -102
q-27 20 -53 31t-49 11q-44 0 -44 -28q0 -10 7.5 -17t20.5 -13t30 -11.5t36 -12.5q22 -8 45 -20t41.5 -29.5t30 -42t11.5 -58.5q0 -35 -14 -65.5t-41 -53t-67 -35t-92 -12.5z" />
    <glyph glyph-name="t" unicode="t" horiz-adv-x="400" 
d="M264 -12q-49 0 -83.5 14.5t-57 41.5t-33 64.5t-10.5 83.5v174h-66v128l76 6l20 130h142v-130h114v-134h-114v-171q0 -42 18 -57.5t42 -15.5q12 0 23.5 2.5t20.5 5.5l26 -124q-20 -6 -48 -12t-70 -6z" />
    <glyph glyph-name="u" unicode="u" horiz-adv-x="578" 
d="M210 -12q-41 0 -70.5 14.5t-48.5 41t-28 64t-9 84.5v308h172v-286q0 -48 12 -64t38 -16q24 0 39.5 10t32.5 34v322h172v-500h-140l-12 66h-4q-30 -36 -66.5 -57t-87.5 -21z" />
    <glyph glyph-name="v" unicode="v" horiz-adv-x="544" 
d="M176 0l-164 500h172l54 -218q18 -75 36 -156h4q18 81 36 156l54 218h164l-158 -500h-198z" />
    <glyph glyph-name="w" unicode="w" horiz-adv-x="798" 
d="M144 0l-120 500h170l38 -210q6 -38 10 -75.5t10 -76.5h4q6 39 12.5 77.5t15.5 74.5l46 210h146l48 -210q9 -38 15.5 -75.5t14.5 -76.5h4q6 39 10 76.5t10 75.5l38 210h158l-114 -500h-200l-36 174l-12 70t-12 77h-4l-11 -77t-11 -70l-34 -174h-196z" />
    <glyph glyph-name="x" unicode="x" horiz-adv-x="540" 
d="M14 0l150 260l-142 240h184l36 -70q10 -21 20 -43t20 -43h4q7 21 15 43t15 43l24 70h178l-142 -260l150 -240h-184l-40 70q-11 21 -22 43t-22 43h-4q-8 -21 -17 -42.5t-17 -43.5l-28 -70h-178z" />
    <glyph glyph-name="y" unicode="y" horiz-adv-x="542" 
d="M132 -188q-26 0 -42.5 2.5t-33.5 7.5l30 130q7 -2 15.5 -4t16.5 -2q35 0 52.5 13.5t25.5 36.5l6 22l-190 482h172l60 -192q11 -35 19 -69.5t17 -72.5h4q8 36 15.5 71t16.5 71l50 192h164l-168 -492q-20 -51 -40.5 -88t-47.5 -61t-61.5 -35.5t-80.5 -11.5z" />
    <glyph glyph-name="z" unicode="z" horiz-adv-x="474" 
d="M40 0v92l190 274h-168v134h382v-92l-190 -274h196v-134h-410z" />
    <glyph glyph-name="braceleft" unicode="{" horiz-adv-x="360" 
d="M238 -152q-35 0 -59.5 7.5t-41 24.5t-24 45t-7.5 69q0 26 1.5 46t3.5 38t3.5 36.5t1.5 41.5q0 26 -19 48t-67 24v100q48 2 67 24t19 48q0 23 -1.5 41.5t-3.5 36.5t-3.5 38t-1.5 46q0 82 31.5 114t100.5 32h70v-90h-16q-28 0 -38 -11.5t-10 -50.5q0 -38 2 -75t2 -81
q0 -60 -20 -85.5t-60 -34.5v-4q40 -9 60 -34.5t20 -85.5q0 -44 -2 -81t-2 -75q0 -39 10 -50.5t38 -11.5h16v-90h-70z" />
    <glyph glyph-name="bar" unicode="|" horiz-adv-x="278" 
d="M84 -250v1000h110v-1000h-110z" />
    <glyph glyph-name="braceright" unicode="}" horiz-adv-x="360" 
d="M52 -152v90h16q28 0 38 11.5t10 50.5q0 38 -2 75t-2 81q0 60 20 85.5t60 34.5v4q-40 9 -60 34.5t-20 85.5q0 44 2 81t2 75q0 39 -10 50.5t-38 11.5h-16v90h70q69 0 100.5 -32t31.5 -114q0 -26 -1.5 -46t-3.5 -38t-3.5 -36.5t-1.5 -41.5q0 -26 19 -48t67 -24v-100
q-48 -2 -67 -24t-19 -48q0 -23 1.5 -41.5t3.5 -36.5t3.5 -38t1.5 -46q0 -41 -7.5 -69t-24 -45t-41.5 -24.5t-59 -7.5h-70z" />
    <glyph glyph-name="asciitilde" unicode="~" horiz-adv-x="540" 
d="M354 234q-32 0 -54.5 11t-41.5 24.5t-36.5 25t-37.5 11.5t-37.5 -15t-32.5 -41l-88 68q41 60 81 84t79 24q31 0 54 -11.5t42 -25t36.5 -24.5t37.5 -11t37.5 15t32.5 41l88 -68q-41 -60 -81 -84t-79 -24z" />
    <glyph glyph-name="uni00A0" unicode="&#xa0;" horiz-adv-x="210" 
 />
    <glyph glyph-name="exclamdown" unicode="&#xa1;" horiz-adv-x="360" 
d="M94 -170l6 148l24 278h112l24 -278l6 -148h-172zM180 304q-44 0 -72 30t-28 74t28 74t72 30t72 -30t28 -74t-28 -74t-72 -30z" />
    <glyph glyph-name="cent" unicode="&#xa2;" horiz-adv-x="540" 
d="M226 306q0 -76 54 -107v214q-28 -15 -41 -42.5t-13 -64.5zM280 -44v91q-101 14 -160.5 80.5t-59.5 178.5q0 53 16.5 96.5t45.5 76t69.5 53.5t88.5 30v94h92v-89q38 -4 69 -18.5t53 -36.5l-78 -106q-23 18 -44 23v-245q17 4 32 12t28 18l68 -108q-29 -25 -62.5 -39.5
t-65.5 -19.5v-91h-92z" />
    <glyph glyph-name="sterling" unicode="&#xa3;" horiz-adv-x="540" 
d="M46 0v106q42 18 74 54.5t32 89.5v8t-1 8h-99v98l68 6h2q-5 17 -8.5 32.5t-3.5 29.5q0 49 17 89t47 67.5t71 42.5t89 15q57 0 100.5 -21t79.5 -63l-92 -92q-32 38 -70 38q-35 0 -56.5 -19.5t-21.5 -66.5q0 -13 2 -25.5t4 -26.5h144v-104h-123q1 -5 1 -9v-9
q0 -29 -8.5 -51.5t-29.5 -48.5v-4h250v-144h-468z" />
    <glyph glyph-name="currency" unicode="&#xa4;" horiz-adv-x="540" 
d="M102 76l-85 85l60 60q-33 47 -33 109q0 32 8.5 58.5t23.5 48.5l-59 60l85 85l70 -70q48 20 98 20t98 -20l70 70l85 -85l-60 -60q16 -22 24.5 -48.5t8.5 -58.5t-9 -59t-25 -50l61 -60l-85 -85l-71 71q-23 -10 -48 -14.5t-49 -4.5q-52 0 -97 19zM270 246q32 0 53 22.5
t21 61.5t-21 61.5t-53 22.5t-53 -22.5t-21 -61.5t21 -61.5t53 -22.5z" />
    <glyph glyph-name="yen" unicode="&#xa5;" horiz-adv-x="540" 
d="M184 0v142h-150v80h150v50h-150v80h114l-140 282h176l40 -118q11 -33 22.5 -65.5t23.5 -64.5h4q11 32 23 65t23 65l40 118h172l-140 -282h114v-80h-150v-50h150v-80h-150v-142h-172z" />
    <glyph glyph-name="brokenbar" unicode="&#xa6;" horiz-adv-x="278" 
d="M84 320v430h110v-430h-110zM84 -250v450h110v-450h-110z" />
    <glyph glyph-name="section" unicode="&#xa7;" horiz-adv-x="540" 
d="M178 332q0 -20 14.5 -34.5t37.5 -26.5t51 -24t56 -26q25 18 25 49q0 20 -14 35t-37 27t-51.5 23t-56.5 25q-25 -19 -25 -48zM242 -92q-56 0 -111.5 21.5t-90.5 68.5l98 86q24 -26 51 -38t53 -12q27 0 38.5 8.5t11.5 23.5q0 16 -19 28t-48 24t-62 27.5t-62 38.5t-48 55.5
t-19 80.5q0 35 20.5 69.5t56.5 57.5q-13 17 -20 37t-7 46q0 74 50 118t138 44q62 0 110 -21.5t80 -46.5l-78 -106q-23 20 -51 34t-51 14q-22 0 -33 -6.5t-11 -23.5q0 -14 20 -25.5t49.5 -24.5t64.5 -29.5t64.5 -39.5t49.5 -55.5t20 -77.5q0 -83 -81 -135q21 -32 21 -75
q0 -35 -12.5 -65.5t-38 -53t-64 -35t-89.5 -12.5z" />
    <glyph glyph-name="dieresis" unicode="&#xa8;" horiz-adv-x="560" 
d="M166 562q-35 0 -57.5 23t-22.5 57t22.5 57t57.5 23t57.5 -23t22.5 -57t-22.5 -57t-57.5 -23zM394 562q-35 0 -57.5 23t-22.5 57t22.5 57t57.5 23t57.5 -23t22.5 -57t-22.5 -57t-57.5 -23z" />
    <glyph glyph-name="copyright" unicode="&#xa9;" horiz-adv-x="752" 
d="M376 -8q-67 0 -127 23t-105.5 66t-72.5 105t-27 140t27 139.5t72.5 103.5t105.5 64.5t127 22.5t127 -22.5t105.5 -65t72.5 -103.5t27 -139t-27 -140t-72.5 -105t-105.5 -66t-127 -23zM376 60q55 0 101.5 19t81 54t54 84t19.5 109t-19.5 108.5t-54 82.5t-81 52.5
t-101.5 18.5t-101.5 -18.5t-81 -52.5t-54 -82.5t-19.5 -108.5t19.5 -109t54 -84t81 -54t101.5 -19zM390 128q-44 0 -80 13.5t-62.5 39t-41 62t-14.5 81.5q0 44 16.5 80t43.5 61.5t62.5 39t73.5 13.5q48 0 80 -18t56 -42l-63 -70q-14 15 -28.5 23.5t-32.5 8.5
q-45 0 -66 -28.5t-21 -67.5q0 -45 21.5 -71.5t59.5 -26.5q23 0 38.5 8t33.5 22l54 -78q-29 -23 -61 -36.5t-69 -13.5z" />
    <glyph glyph-name="ordfeminine" unicode="&#xaa;" horiz-adv-x="364" 
d="M128 360q-24 0 -43 8.5t-32 22.5t-20 32.5t-7 38.5q0 53 42.5 82t139.5 38q-4 32 -44 32q-18 0 -39 -7t-47 -21l-42 78q36 21 73.5 32.5t76.5 11.5q65 0 103.5 -37t38.5 -117v-186h-96l-10 32h-4q-18 -18 -40.5 -29t-49.5 -11zM169 450q13 0 21.5 5.5t17.5 14.5v44
q-39 -5 -53.5 -16.5t-14.5 -25.5q0 -22 29 -22z" />
    <glyph glyph-name="guillemotleft" unicode="&#xab;" horiz-adv-x="500" 
d="M184 52l-134 140v120l134 140l62 -50l-108 -150l108 -150zM384 52l-134 140v120l134 140l62 -50l-108 -150l108 -150z" />
    <glyph glyph-name="logicalnot" unicode="&#xac;" horiz-adv-x="540" 
d="M382 90v180h-348v120h472v-300h-124z" />
    <glyph glyph-name="uni00AD" unicode="&#xad;" horiz-adv-x="340" 
d="M44 194v120h252v-120h-252z" />
    <glyph glyph-name="registered" unicode="&#xae;" horiz-adv-x="477" 
d="M238 308q-42 0 -79 15.5t-64 42.5t-43 64.5t-16 81.5t16 81.5t43 64.5t64 42.5t79 15.5t79 -15.5t64 -42.5t43 -64.5t16 -81.5t-16 -81.5t-43 -64.5t-64 -42.5t-79 -15.5zM238 362q63 0 102.5 40.5t39.5 109.5t-39.5 109.5t-102.5 40.5t-102.5 -40.5t-39.5 -109.5
t39.5 -109.5t102.5 -40.5zM154 416v194h94q36 0 59 -16.5t23 -49.5q0 -17 -8 -31t-26 -23l40 -74h-66l-28 56h-24v-56h-64zM218 515h18q14 0 20 8t6 17q0 10 -7 16.5t-19 6.5h-18v-48z" />
    <glyph glyph-name="macron" unicode="&#xaf;" horiz-adv-x="560" 
d="M126 588v108h308v-108h-308z" />
    <glyph glyph-name="degree" unicode="&#xb0;" horiz-adv-x="378" 
d="M190 386q-32 0 -60 11.5t-48.5 31.5t-32 47.5t-11.5 59.5t11.5 59.5t32 47.5t48.5 31.5t60 11.5t60 -11.5t48.5 -31.5t32 -47.5t11.5 -59.5t-11.5 -59.5t-32 -47.5t-48.5 -31.5t-60 -11.5zM190 466q29 0 46.5 19t17.5 51t-17.5 51t-46.5 19t-46.5 -19t-17.5 -51t17.5 -51
t46.5 -19z" />
    <glyph glyph-name="plusminus" unicode="&#xb1;" horiz-adv-x="540" 
d="M208 170v120h-174v120h174v160h124v-160h174v-120h-174v-120h-124zM34 0v120h472v-120h-472z" />
    <glyph glyph-name="two.sups" unicode="&#xb2;" horiz-adv-x="380" 
d="M42 368v66q34 27 64.5 52.5t53 48t35.5 42.5t13 37q0 26 -13 40t-37 14q-18 0 -33.5 -11.5t-32.5 -32.5l-70 64q33 42 71 62t85 20q68 0 109 -35.5t41 -98.5q0 -44 -27.5 -84.5t-60.5 -79.5h100v-104h-298z" />
    <glyph glyph-name="three.sups" unicode="&#xb3;" horiz-adv-x="380" 
d="M188 356q-53 0 -95 19.5t-69 60.5l74 58q18 -24 35.5 -34t40.5 -10q20 0 34 10t14 28q0 23 -19.5 33.5t-62.5 10.5v70q31 0 49.5 8.5t18.5 31.5q0 17 -11 25.5t-29 8.5t-32 -10.5t-26 -25.5l-70 62q35 36 68.5 52t81.5 16q28 0 53 -7.5t44.5 -22t31 -35t11.5 -45.5
q0 -30 -13 -50.5t-39 -37.5q29 -14 47.5 -37.5t18.5 -56.5q0 -27 -13 -49.5t-34.5 -38.5t-49.5 -25t-59 -9z" />
    <glyph glyph-name="acute" unicode="&#xb4;" horiz-adv-x="560" 
d="M300 572l-84 84l158 188l116 -114z" />
    <glyph glyph-name="uni00B5" unicode="&#xb5;" horiz-adv-x="606" 
d="M58 -176v676h172v-286q0 -48 12 -64t38 -16q23 0 38.5 13.5t29.5 40.5v312h174q-2 -41 -4 -88t-3.5 -92t-3 -84.5t-1.5 -65.5t12.5 -35t35.5 -9q6 0 15 1.5t17 4.5l20 -126q-18 -8 -40 -13t-58 -5q-56 0 -92.5 20t-51.5 58h-4q-15 -35 -39.5 -53.5t-54.5 -18.5
q-14 0 -26.5 2.5t-23.5 11.5q2 -49 4 -91.5t8 -92.5h-174z" />
    <glyph glyph-name="paragraph" unicode="&#xb6;" horiz-adv-x="666" 
d="M398 -80v730h172v-730h-172zM298 186q-53 0 -100 15.5t-82.5 45.5t-56.5 74.5t-21 102.5q0 64 21 107.5t56.5 70t82.5 37.5t100 11h44v-464h-44z" />
    <glyph glyph-name="periodcentered" unicode="&#xb7;" horiz-adv-x="320" 
d="M160 216q-44 0 -72 30t-28 74t28 74t72 30t72 -30t28 -74t-28 -74t-72 -30z" />
    <glyph glyph-name="cedilla" unicode="&#xb8;" horiz-adv-x="560" 
d="M172 -244l-12 66q57 3 78.5 12t21.5 30q0 13 -15 23.5t-61 16.5l50 100h98l-28 -64q39 -9 58.5 -26.5t19.5 -49.5q0 -54 -55 -79.5t-155 -28.5z" />
    <glyph glyph-name="one.sups" unicode="&#xb9;" horiz-adv-x="380" 
d="M162 368v270h-90v76q22 3 38 7t29.5 9t25 12t25.5 16h98v-390h-126z" />
    <glyph glyph-name="ordmasculine" unicode="&#xba;" horiz-adv-x="376" 
d="M188 360q-32 0 -62 11.5t-53 34t-37 54.5t-14 73t14 73.5t37 55t53 34.5t62 12t62 -12t53 -34.5t37 -55t14 -73.5t-14 -73t-37 -54.5t-53 -34t-62 -11.5zM188 454q25 0 34.5 21.5t9.5 57.5q0 37 -9.5 59t-34.5 22t-34.5 -22t-9.5 -59q0 -36 9.5 -57.5t34.5 -21.5z" />
    <glyph glyph-name="guillemotright" unicode="&#xbb;" horiz-adv-x="500" 
d="M116 52l-62 50l108 150l-108 150l62 50l134 -140v-120zM316 52l-62 50l108 150l-108 150l62 50l134 -140v-120z" />
    <glyph glyph-name="onequarter" unicode="&#xbc;" horiz-adv-x="820" 
d="M131 260v270h-90v76q22 3 38 7t29.5 9t25 12t25.5 16h98v-390h-126zM188 -12l348 674h96l-348 -674h-96zM652 0v80h-180v62l132 248h158v-230h58v-80h-58v-80h-110zM584 160h68v30l6 120h-4l-36 -76z" />
    <glyph glyph-name="onehalf" unicode="&#xbd;" horiz-adv-x="860" 
d="M131 260v270h-90v76q22 3 38 7t29.5 9t25 12t25.5 16h98v-390h-126zM174 -12l348 674h96l-348 -674h-96zM522 0v66q34 27 64.5 52.5t53 48t35.5 42.5t13 37q0 26 -13 40t-37 14q-18 0 -33.5 -11.5t-32.5 -32.5l-70 64q33 42 71 62t85 20q68 0 109 -35.5t41 -98.5
q0 -44 -27.5 -84.5t-60.5 -79.5h100v-104h-298z" />
    <glyph glyph-name="threequarters" unicode="&#xbe;" horiz-adv-x="826" 
d="M185 248q-53 0 -95 19.5t-69 60.5l74 58q18 -24 35.5 -34t40.5 -10q20 0 34 10t14 28q0 23 -19.5 33.5t-62.5 10.5v70q31 0 49.5 8.5t18.5 31.5q0 17 -11 25.5t-29 8.5t-32 -10.5t-26 -25.5l-70 62q35 36 68.5 52t81.5 16q28 0 53 -7.5t44.5 -22t31 -35t11.5 -45.5
q0 -30 -13 -50.5t-39 -37.5q29 -14 47.5 -37.5t18.5 -56.5q0 -27 -13 -49.5t-34.5 -38.5t-49.5 -25t-59 -9zM204 -12l348 674h96l-348 -674h-96zM658 0v80h-180v62l132 248h158v-230h58v-80h-58v-80h-110zM590 160h68v30l6 120h-4l-36 -76z" />
    <glyph glyph-name="questiondown" unicode="&#xbf;" horiz-adv-x="478" 
d="M238 -182q-41 0 -77 10t-63 31t-42.5 54.5t-15.5 80.5q0 30 11 53.5t26.5 43.5t34 38t33.5 37t24 40.5t7 49.5h150q5 -32 -2 -59t-20.5 -49.5t-31 -41.5t-32.5 -36t-25.5 -32.5t-10.5 -31.5q0 -27 16.5 -38.5t39.5 -11.5q26 0 44 12t38 30l94 -86q-38 -42 -88 -68
t-110 -26zM252 304q-44 0 -72 30t-28 74t28 74t72 30t72 -30t28 -74t-28 -74t-72 -30z" />
    <glyph glyph-name="Agrave" unicode="&#xc0;" horiz-adv-x="584" 
d="M240 316l-11 -45h120l-11 45q-12 47 -24 102t-24 104h-4q-11 -50 -22.5 -104.5t-23.5 -101.5zM-10 0l198 650h208l198 -650h-182l-32 138h-182l-32 -138h-176zM296 674l-196 120l90 110l182 -144z" />
    <glyph glyph-name="Aacute" unicode="&#xc1;" horiz-adv-x="584" 
d="M240 316l-11 -45h120l-11 45q-12 47 -24 102t-24 104h-4q-11 -50 -22.5 -104.5t-23.5 -101.5zM-10 0l198 650h208l198 -650h-182l-32 138h-182l-32 -138h-176zM280 674l-76 86l182 144l90 -110z" />
    <glyph glyph-name="Acircumflex" unicode="&#xc2;" horiz-adv-x="584" 
d="M240 316l-11 -45h120l-11 45q-12 47 -24 102t-24 104h-4q-11 -50 -22.5 -104.5t-23.5 -101.5zM-10 0l198 650h208l198 -650h-182l-32 138h-182l-32 -138h-176zM110 724l84 110h188l84 -110l-74 -44l-102 80h-4l-102 -80z" />
    <glyph glyph-name="Atilde" unicode="&#xc3;" horiz-adv-x="584" 
d="M240 316l-11 -45h120l-11 45q-12 47 -24 102t-24 104h-4q-11 -50 -22.5 -104.5t-23.5 -101.5zM-10 0l198 650h208l198 -650h-182l-32 138h-182l-32 -138h-176zM358 686q-26 0 -46.5 8t-36.5 18t-28.5 18t-22.5 8q-12 0 -20.5 -8t-11.5 -34l-110 8q2 41 13.5 70t29.5 47
t42 26.5t51 8.5q26 0 46.5 -8t36.5 -18t28 -18t23 -8q12 0 20.5 8t11.5 34l110 -8q-2 -41 -13.5 -70t-29.5 -47t-42 -26.5t-51 -8.5z" />
    <glyph glyph-name="Adieresis" unicode="&#xc4;" horiz-adv-x="584" 
d="M240 316l-11 -45h120l-11 45q-12 47 -24 102t-24 104h-4q-11 -50 -22.5 -104.5t-23.5 -101.5zM-10 0l198 650h208l198 -650h-182l-32 138h-182l-32 -138h-176zM174 694q-35 0 -56.5 22.5t-21.5 55.5t21.5 55.5t56.5 22.5t56.5 -22.5t21.5 -55.5t-21.5 -55.5t-56.5 -22.5z
M402 694q-35 0 -56.5 22.5t-21.5 55.5t21.5 55.5t56.5 22.5t56.5 -22.5t21.5 -55.5t-21.5 -55.5t-56.5 -22.5z" />
    <glyph glyph-name="Aring" unicode="&#xc5;" horiz-adv-x="584" 
d="M240 316l-11 -45h120l-11 45q-12 47 -24 102t-24 104h-4q-11 -50 -22.5 -104.5t-23.5 -101.5zM-10 0l198 650h208l198 -650h-182l-32 138h-182l-32 -138h-176zM288 696q-54 0 -87 27.5t-33 74.5t33 74.5t87 27.5t87 -27.5t33 -74.5t-33 -74.5t-87 -27.5zM288 758
q16 0 27 11t11 29t-11 29t-27 11t-27 -11t-11 -29t11 -29t27 -11z" />
    <glyph glyph-name="AE" unicode="&#xc6;" horiz-adv-x="854" 
d="M308 348l-36 -83h108v257h-4q-18 -47 -34.5 -91t-33.5 -83zM-22 0l296 650h516v-144h-238v-102h202v-144h-202v-116h248v-144h-420v132h-165l-57 -132h-180z" />
    <glyph glyph-name="Ccedilla" unicode="&#xc7;" horiz-adv-x="586" 
d="M354 -12q-62 0 -118.5 20.5t-99 62t-67.5 104t-25 145.5q0 82 26 145.5t69.5 107t100 66.5t118.5 23q65 0 116 -25.5t86 -60.5l-90 -110q-24 21 -49.5 34.5t-58.5 13.5q-29 0 -54.5 -13t-45 -37t-31 -59t-11.5 -79q0 -92 38.5 -141t101.5 -49q38 0 67.5 16.5t50.5 39.5
l90 -108q-42 -48 -96.5 -72t-117.5 -24zM244 -244l-12 66q57 3 78.5 12t21.5 30q0 13 -15 23.5t-61 16.5l50 100h98l-28 -64q39 -9 58.5 -26.5t19.5 -49.5q0 -54 -55 -79.5t-155 -28.5z" />
    <glyph glyph-name="Egrave" unicode="&#xc8;" horiz-adv-x="556" 
d="M72 0v650h420v-144h-248v-102h212v-144h-212v-116h258v-144h-430zM298 674l-196 120l90 110l182 -144z" />
    <glyph glyph-name="Eacute" unicode="&#xc9;" horiz-adv-x="556" 
d="M72 0v650h420v-144h-248v-102h212v-144h-212v-116h258v-144h-430zM282 674l-76 86l182 144l90 -110z" />
    <glyph glyph-name="Ecircumflex" unicode="&#xca;" horiz-adv-x="556" 
d="M72 0v650h420v-144h-248v-102h212v-144h-212v-116h258v-144h-430zM112 724l84 110h188l84 -110l-74 -44l-102 80h-4l-102 -80z" />
    <glyph glyph-name="Edieresis" unicode="&#xcb;" horiz-adv-x="556" 
d="M72 0v650h420v-144h-248v-102h212v-144h-212v-116h258v-144h-430zM176 694q-35 0 -56.5 22.5t-21.5 55.5t21.5 55.5t56.5 22.5t56.5 -22.5t21.5 -55.5t-21.5 -55.5t-56.5 -22.5zM404 694q-35 0 -56.5 22.5t-21.5 55.5t21.5 55.5t56.5 22.5t56.5 -22.5t21.5 -55.5
t-21.5 -55.5t-56.5 -22.5z" />
    <glyph glyph-name="Igrave" unicode="&#xcc;" horiz-adv-x="316" 
d="M72 0v650h172v-650h-172zM166 674l-196 120l90 110l182 -144z" />
    <glyph glyph-name="Iacute" unicode="&#xcd;" horiz-adv-x="316" 
d="M72 0v650h172v-650h-172zM150 674l-76 86l182 144l90 -110z" />
    <glyph glyph-name="Icircumflex" unicode="&#xce;" horiz-adv-x="316" 
d="M72 0v650h172v-650h-172zM-20 724l84 110h188l84 -110l-74 -44l-102 80h-4l-102 -80z" />
    <glyph glyph-name="Idieresis" unicode="&#xcf;" horiz-adv-x="316" 
d="M72 0v650h172v-650h-172zM44 694q-35 0 -56.5 22.5t-21.5 55.5t21.5 55.5t56.5 22.5t56.5 -22.5t21.5 -55.5t-21.5 -55.5t-56.5 -22.5zM272 694q-35 0 -56.5 22.5t-21.5 55.5t21.5 55.5t56.5 22.5t56.5 -22.5t21.5 -55.5t-21.5 -55.5t-56.5 -22.5z" />
    <glyph glyph-name="Eth" unicode="&#xd0;" horiz-adv-x="668" 
d="M24 294v74l74 6v276h192q74 0 135.5 -18t105.5 -57t68.5 -100t24.5 -147t-24 -148t-67.5 -102t-103 -59t-129.5 -19h-202v294h-74zM270 138h10q35 0 66 8.5t53.5 29.5t35.5 58t13 94t-13 93t-35.5 56t-53.5 27.5t-66 7.5h-10v-138h116v-80h-116v-156z" />
    <glyph glyph-name="Ntilde" unicode="&#xd1;" horiz-adv-x="672" 
d="M72 0v650h176l144 -290l62 -146h4q-3 26 -7 57t-7 63.5t-5.5 65t-2.5 62.5v188h164v-650h-176l-144 291l-62 145h-4q6 -56 14 -122t8 -126v-188h-164zM406 686q-26 0 -46.5 8t-36.5 18t-28.5 18t-22.5 8q-12 0 -20.5 -8t-11.5 -34l-110 8q2 41 13.5 70t29.5 47t42 26.5
t51 8.5q26 0 46.5 -8t36.5 -18t28 -18t23 -8q12 0 20.5 8t11.5 34l110 -8q-2 -41 -13.5 -70t-29.5 -47t-42 -26.5t-51 -8.5z" />
    <glyph glyph-name="Ograve" unicode="&#xd2;" horiz-adv-x="692" 
d="M346 -12q-68 0 -123.5 23t-95 66.5t-61.5 107t-22 143.5t22 142.5t61.5 105t95 64.5t123.5 22q67 0 123 -22t95.5 -65t61.5 -105t22 -142t-22 -143.5t-61.5 -107t-95.5 -66.5t-123 -23zM346 136q59 0 92.5 51.5t33.5 140.5t-33.5 137.5t-92.5 48.5t-92.5 -48.5
t-33.5 -137.5t33.5 -140.5t92.5 -51.5zM354 674l-196 120l90 110l182 -144z" />
    <glyph glyph-name="Oacute" unicode="&#xd3;" horiz-adv-x="692" 
d="M346 -12q-68 0 -123.5 23t-95 66.5t-61.5 107t-22 143.5t22 142.5t61.5 105t95 64.5t123.5 22q67 0 123 -22t95.5 -65t61.5 -105t22 -142t-22 -143.5t-61.5 -107t-95.5 -66.5t-123 -23zM346 136q59 0 92.5 51.5t33.5 140.5t-33.5 137.5t-92.5 48.5t-92.5 -48.5
t-33.5 -137.5t33.5 -140.5t92.5 -51.5zM338 674l-76 86l182 144l90 -110z" />
    <glyph glyph-name="Ocircumflex" unicode="&#xd4;" horiz-adv-x="692" 
d="M346 -12q-68 0 -123.5 23t-95 66.5t-61.5 107t-22 143.5t22 142.5t61.5 105t95 64.5t123.5 22q67 0 123 -22t95.5 -65t61.5 -105t22 -142t-22 -143.5t-61.5 -107t-95.5 -66.5t-123 -23zM346 136q59 0 92.5 51.5t33.5 140.5t-33.5 137.5t-92.5 48.5t-92.5 -48.5
t-33.5 -137.5t33.5 -140.5t92.5 -51.5zM168 724l84 110h188l84 -110l-74 -44l-102 80h-4l-102 -80z" />
    <glyph glyph-name="Otilde" unicode="&#xd5;" horiz-adv-x="692" 
d="M346 -12q-68 0 -123.5 23t-95 66.5t-61.5 107t-22 143.5t22 142.5t61.5 105t95 64.5t123.5 22q67 0 123 -22t95.5 -65t61.5 -105t22 -142t-22 -143.5t-61.5 -107t-95.5 -66.5t-123 -23zM346 136q59 0 92.5 51.5t33.5 140.5t-33.5 137.5t-92.5 48.5t-92.5 -48.5
t-33.5 -137.5t33.5 -140.5t92.5 -51.5zM416 686q-26 0 -46.5 8t-36.5 18t-28.5 18t-22.5 8q-12 0 -20.5 -8t-11.5 -34l-110 8q2 41 13.5 70t29.5 47t42 26.5t51 8.5q26 0 46.5 -8t36.5 -18t28 -18t23 -8q12 0 20.5 8t11.5 34l110 -8q-2 -41 -13.5 -70t-29.5 -47t-42 -26.5
t-51 -8.5z" />
    <glyph glyph-name="Odieresis" unicode="&#xd6;" horiz-adv-x="692" 
d="M346 -12q-68 0 -123.5 23t-95 66.5t-61.5 107t-22 143.5t22 142.5t61.5 105t95 64.5t123.5 22q67 0 123 -22t95.5 -65t61.5 -105t22 -142t-22 -143.5t-61.5 -107t-95.5 -66.5t-123 -23zM346 136q59 0 92.5 51.5t33.5 140.5t-33.5 137.5t-92.5 48.5t-92.5 -48.5
t-33.5 -137.5t33.5 -140.5t92.5 -51.5zM232 694q-35 0 -56.5 22.5t-21.5 55.5t21.5 55.5t56.5 22.5t56.5 -22.5t21.5 -55.5t-21.5 -55.5t-56.5 -22.5zM460 694q-35 0 -56.5 22.5t-21.5 55.5t21.5 55.5t56.5 22.5t56.5 -22.5t21.5 -55.5t-21.5 -55.5t-56.5 -22.5z" />
    <glyph glyph-name="multiply" unicode="&#xd7;" horiz-adv-x="540" 
d="M132 106l-85 85l138 138l-138 138l85 85l138 -138l138 138l85 -85l-138 -138l138 -138l-85 -85l-138 138z" />
    <glyph glyph-name="Oslash" unicode="&#xd8;" horiz-adv-x="692" 
d="M346 -12q-93 0 -160 42l-62 -76l-88 68l69 84q-29 42 -45 97.5t-16 124.5q0 80 22 142.5t61.5 105t95 64.5t123.5 22q100 0 174 -49l68 83l88 -68l-79 -96q25 -40 38 -91t13 -113q0 -80 -22 -143.5t-61.5 -107t-95.5 -66.5t-123 -23zM220 328q0 -42 7 -73l191 233
q-31 26 -72 26q-59 0 -92.5 -48.5t-33.5 -137.5zM346 136q59 0 92.5 51.5t33.5 140.5q0 26 -3 47l-182 -222q26 -17 59 -17z" />
    <glyph glyph-name="Ugrave" unicode="&#xd9;" horiz-adv-x="672" 
d="M338 -12q-137 0 -203.5 79.5t-66.5 246.5v336h172v-356q0 -87 23.5 -122.5t74.5 -35.5t75.5 35.5t24.5 122.5v356h166v-336q0 -167 -65 -246.5t-201 -79.5zM344 674l-196 120l90 110l182 -144z" />
    <glyph glyph-name="Uacute" unicode="&#xda;" horiz-adv-x="672" 
d="M338 -12q-137 0 -203.5 79.5t-66.5 246.5v336h172v-356q0 -87 23.5 -122.5t74.5 -35.5t75.5 35.5t24.5 122.5v356h166v-336q0 -167 -65 -246.5t-201 -79.5zM328 674l-76 86l182 144l90 -110z" />
    <glyph glyph-name="Ucircumflex" unicode="&#xdb;" horiz-adv-x="672" 
d="M338 -12q-137 0 -203.5 79.5t-66.5 246.5v336h172v-356q0 -87 23.5 -122.5t74.5 -35.5t75.5 35.5t24.5 122.5v356h166v-336q0 -167 -65 -246.5t-201 -79.5zM158 724l84 110h188l84 -110l-74 -44l-102 80h-4l-102 -80z" />
    <glyph glyph-name="Udieresis" unicode="&#xdc;" horiz-adv-x="672" 
d="M338 -12q-137 0 -203.5 79.5t-66.5 246.5v336h172v-356q0 -87 23.5 -122.5t74.5 -35.5t75.5 35.5t24.5 122.5v356h166v-336q0 -167 -65 -246.5t-201 -79.5zM222 694q-35 0 -56.5 22.5t-21.5 55.5t21.5 55.5t56.5 22.5t56.5 -22.5t21.5 -55.5t-21.5 -55.5t-56.5 -22.5z
M450 694q-35 0 -56.5 22.5t-21.5 55.5t21.5 55.5t56.5 22.5t56.5 -22.5t21.5 -55.5t-21.5 -55.5t-56.5 -22.5z" />
    <glyph glyph-name="Yacute" unicode="&#xdd;" horiz-adv-x="544" 
d="M186 0v224l-196 426h184l48 -136q12 -37 24 -72t25 -73h4q13 38 25.5 73t25.5 72l48 136h180l-196 -426v-224h-172zM264 674l-76 86l182 144l90 -110z" />
    <glyph glyph-name="Thorn" unicode="&#xde;" horiz-adv-x="630" 
d="M72 0v650h172v-94h80q52 0 99.5 -10.5t83 -36t56.5 -67t21 -102.5q0 -60 -21.5 -103t-57.5 -70.5t-83 -41t-98 -13.5h-80v-112h-172zM244 248h72q51 0 75.5 24t24.5 68t-26 62t-74 18h-72v-172z" />
    <glyph glyph-name="germandbls" unicode="&#xdf;" horiz-adv-x="654" 
d="M434 -12q-45 0 -80.5 11.5t-73.5 32.5l58 116q24 -18 46.5 -26t43.5 -8q20 0 32 9.5t12 26.5q0 15 -12.5 26.5t-31 22t-40.5 23t-40.5 29t-31 39t-12.5 54.5q0 27 10 47t22 38t22 37.5t10 45.5t-14.5 43t-41.5 17q-43 0 -63.5 -31.5t-20.5 -82.5v-458h-170v476
q0 49 15 91t46.5 73t79 48.5t113.5 17.5q55 0 96.5 -15t69 -39t41 -55.5t13.5 -64.5q0 -35 -11.5 -59.5t-25 -42.5t-24.5 -33t-11 -31q0 -14 12.5 -24t31 -20.5t40.5 -23.5t40.5 -31.5t31 -45t12.5 -63.5q0 -35 -12 -66t-36 -54t-60.5 -36.5t-85.5 -13.5z" />
    <glyph glyph-name="agrave" unicode="&#xe0;" horiz-adv-x="536" 
d="M188 -12q-35 0 -63 12.5t-47.5 33.5t-29.5 49t-10 59q0 78 64 122.5t208 59.5q-6 52 -70 52q-27 0 -57 -10.5t-69 -31.5l-60 112q53 32 107 49t113 17q97 0 152.5 -55.5t55.5 -178.5v-278h-140l-12 48h-4q-30 -27 -63.5 -43.5t-74.5 -16.5zM248 120q21 0 34.5 9.5
t27.5 24.5v68q-62 -9 -85 -27t-23 -39q0 -36 46 -36zM261 572l-190 158l116 114l158 -188z" />
    <glyph glyph-name="aacute" unicode="&#xe1;" horiz-adv-x="536" 
d="M188 -12q-35 0 -63 12.5t-47.5 33.5t-29.5 49t-10 59q0 78 64 122.5t208 59.5q-6 52 -70 52q-27 0 -57 -10.5t-69 -31.5l-60 112q53 32 107 49t113 17q97 0 152.5 -55.5t55.5 -178.5v-278h-140l-12 48h-4q-30 -27 -63.5 -43.5t-74.5 -16.5zM248 120q21 0 34.5 9.5
t27.5 24.5v68q-62 -9 -85 -27t-23 -39q0 -36 46 -36zM301 572l-84 84l158 188l116 -114z" />
    <glyph glyph-name="acircumflex" unicode="&#xe2;" horiz-adv-x="536" 
d="M188 -12q-35 0 -63 12.5t-47.5 33.5t-29.5 49t-10 59q0 78 64 122.5t208 59.5q-6 52 -70 52q-27 0 -57 -10.5t-69 -31.5l-60 112q53 32 107 49t113 17q97 0 152.5 -55.5t55.5 -178.5v-278h-140l-12 48h-4q-30 -27 -63.5 -43.5t-74.5 -16.5zM248 120q21 0 34.5 9.5
t27.5 24.5v68q-62 -9 -85 -27t-23 -39q0 -36 46 -36zM87 618l106 128h176l106 -128l-64 -60l-128 84h-4l-128 -84z" />
    <glyph glyph-name="atilde" unicode="&#xe3;" horiz-adv-x="536" 
d="M188 -12q-35 0 -63 12.5t-47.5 33.5t-29.5 49t-10 59q0 78 64 122.5t208 59.5q-6 52 -70 52q-27 0 -57 -10.5t-69 -31.5l-60 112q53 32 107 49t113 17q97 0 152.5 -55.5t55.5 -178.5v-278h-140l-12 48h-4q-30 -27 -63.5 -43.5t-74.5 -16.5zM248 120q21 0 34.5 9.5
t27.5 24.5v68q-62 -9 -85 -27t-23 -39q0 -36 46 -36zM345 572q-23 0 -41.5 8.5t-33.5 19t-27 19.5t-22 9q-12 0 -19.5 -9.5t-10.5 -36.5l-106 6q2 85 37 121.5t95 36.5q22 0 41 -9t34 -19.5t27 -19t22 -8.5q12 0 19.5 9.5t10.5 36.5l106 -6q-2 -85 -37 -121.5t-95 -36.5z
" />
    <glyph glyph-name="adieresis" unicode="&#xe4;" horiz-adv-x="536" 
d="M188 -12q-35 0 -63 12.5t-47.5 33.5t-29.5 49t-10 59q0 78 64 122.5t208 59.5q-6 52 -70 52q-27 0 -57 -10.5t-69 -31.5l-60 112q53 32 107 49t113 17q97 0 152.5 -55.5t55.5 -178.5v-278h-140l-12 48h-4q-30 -27 -63.5 -43.5t-74.5 -16.5zM248 120q21 0 34.5 9.5
t27.5 24.5v68q-62 -9 -85 -27t-23 -39q0 -36 46 -36zM167 562q-35 0 -57.5 23t-22.5 57t22.5 57t57.5 23t57.5 -23t22.5 -57t-22.5 -57t-57.5 -23zM395 562q-35 0 -57.5 23t-22.5 57t22.5 57t57.5 23t57.5 -23t22.5 -57t-22.5 -57t-57.5 -23z" />
    <glyph glyph-name="aring" unicode="&#xe5;" horiz-adv-x="536" 
d="M188 -12q-35 0 -63 12.5t-47.5 33.5t-29.5 49t-10 59q0 78 64 122.5t208 59.5q-6 52 -70 52q-27 0 -57 -10.5t-69 -31.5l-60 112q53 32 107 49t113 17q97 0 152.5 -55.5t55.5 -178.5v-278h-140l-12 48h-4q-30 -27 -63.5 -43.5t-74.5 -16.5zM248 120q21 0 34.5 9.5
t27.5 24.5v68q-62 -9 -85 -27t-23 -39q0 -36 46 -36zM281 568q-71 0 -105.5 31t-34.5 75t34.5 75t105.5 31t105.5 -31t34.5 -75t-34.5 -75t-105.5 -31zM281 630q16 0 27 12t11 32t-11 32t-27 12t-27 -12t-11 -32t11 -32t27 -12z" />
    <glyph glyph-name="ae" unicode="&#xe6;" horiz-adv-x="786" 
d="M192 -12q-35 0 -63 12.5t-47.5 33.5t-29.5 49t-10 59q0 78 63 123t207 60q-3 26 -18.5 38.5t-49.5 12.5q-27 0 -57 -10.5t-69 -31.5l-60 112q53 32 104.5 49t105.5 17q44 0 79 -17t59 -47q33 32 66.5 48t75.5 16q51 0 89 -19.5t63 -53t37.5 -78.5t12.5 -95
q0 -23 -2.5 -41t-4.5 -27h-275q11 -42 39.5 -59t66.5 -17q26 0 49.5 9.5t50.5 24.5l58 -110q-41 -29 -90.5 -43.5t-91.5 -14.5q-53 0 -95.5 19t-74.5 53q-27 -21 -50.5 -34.5t-45.5 -22t-44.5 -12t-47.5 -3.5zM252 120q22 0 39.5 8t32.5 22q-9 27 -12 53l-2 19
q-57 -9 -80.5 -26.5t-23.5 -39.5q0 -36 46 -36zM468 302h136q0 33 -13.5 56.5t-48.5 23.5q-29 0 -48.5 -18t-25.5 -62z" />
    <glyph glyph-name="ccedilla" unicode="&#xe7;" horiz-adv-x="472" 
d="M284 -12q-53 0 -99 17.5t-80 51t-53.5 82.5t-19.5 111t22 111t59 82.5t85.5 51t101.5 17.5q45 0 81 -14t65 -38l-80 -110q-17 14 -29.5 19t-26.5 5q-48 0 -75 -33.5t-27 -90.5t27.5 -90.5t68.5 -33.5q21 0 41.5 9t38.5 23l66 -112q-38 -33 -82.5 -45.5t-83.5 -12.5z
M179 -244l-12 66q57 3 78.5 12t21.5 30q0 13 -15 23.5t-61 16.5l50 100h98l-28 -64q39 -9 58.5 -26.5t19.5 -49.5q0 -54 -55 -79.5t-155 -28.5z" />
    <glyph glyph-name="egrave" unicode="&#xe8;" horiz-adv-x="526" 
d="M290 -12q-55 0 -102 17.5t-81.5 51t-54.5 82.5t-20 111q0 61 20.5 109.5t54 82.5t76.5 52t89 18q55 0 96 -19t68 -52t40.5 -77t13.5 -94q0 -23 -2.5 -43t-4.5 -29h-285q12 -45 43 -62.5t73 -17.5q26 0 50.5 7.5t51.5 22.5l56 -102q-41 -29 -90.5 -43.5t-91.5 -14.5z
M196 310h148q0 29 -14.5 50.5t-53.5 21.5q-29 0 -50.5 -17t-29.5 -55zM252 572l-190 158l116 114l158 -188z" />
    <glyph glyph-name="eacute" unicode="&#xe9;" horiz-adv-x="526" 
d="M290 -12q-55 0 -102 17.5t-81.5 51t-54.5 82.5t-20 111q0 61 20.5 109.5t54 82.5t76.5 52t89 18q55 0 96 -19t68 -52t40.5 -77t13.5 -94q0 -23 -2.5 -43t-4.5 -29h-285q12 -45 43 -62.5t73 -17.5q26 0 50.5 7.5t51.5 22.5l56 -102q-41 -29 -90.5 -43.5t-91.5 -14.5z
M196 310h148q0 29 -14.5 50.5t-53.5 21.5q-29 0 -50.5 -17t-29.5 -55zM292 572l-84 84l158 188l116 -114z" />
    <glyph glyph-name="ecircumflex" unicode="&#xea;" horiz-adv-x="526" 
d="M290 -12q-55 0 -102 17.5t-81.5 51t-54.5 82.5t-20 111q0 61 20.5 109.5t54 82.5t76.5 52t89 18q55 0 96 -19t68 -52t40.5 -77t13.5 -94q0 -23 -2.5 -43t-4.5 -29h-285q12 -45 43 -62.5t73 -17.5q26 0 50.5 7.5t51.5 22.5l56 -102q-41 -29 -90.5 -43.5t-91.5 -14.5z
M196 310h148q0 29 -14.5 50.5t-53.5 21.5q-29 0 -50.5 -17t-29.5 -55zM78 618l106 128h176l106 -128l-64 -60l-128 84h-4l-128 -84z" />
    <glyph glyph-name="edieresis" unicode="&#xeb;" horiz-adv-x="526" 
d="M290 -12q-55 0 -102 17.5t-81.5 51t-54.5 82.5t-20 111q0 61 20.5 109.5t54 82.5t76.5 52t89 18q55 0 96 -19t68 -52t40.5 -77t13.5 -94q0 -23 -2.5 -43t-4.5 -29h-285q12 -45 43 -62.5t73 -17.5q26 0 50.5 7.5t51.5 22.5l56 -102q-41 -29 -90.5 -43.5t-91.5 -14.5z
M196 310h148q0 29 -14.5 50.5t-53.5 21.5q-29 0 -50.5 -17t-29.5 -55zM158 562q-35 0 -57.5 23t-22.5 57t22.5 57t57.5 23t57.5 -23t22.5 -57t-22.5 -57t-57.5 -23zM386 562q-35 0 -57.5 23t-22.5 57t22.5 57t57.5 23t57.5 -23t22.5 -57t-22.5 -57t-57.5 -23z" />
    <glyph glyph-name="igrave" unicode="&#xec;" horiz-adv-x="288" 
d="M58 0v500h172v-500h-172zM124 572l-190 158l116 114l158 -188z" />
    <glyph glyph-name="iacute" unicode="&#xed;" horiz-adv-x="288" 
d="M58 0v500h172v-500h-172zM164 572l-84 84l158 188l116 -114z" />
    <glyph glyph-name="icircumflex" unicode="&#xee;" horiz-adv-x="288" 
d="M58 0v500h172v-500h-172zM-50 618l106 128h176l106 -128l-64 -60l-128 84h-4l-128 -84z" />
    <glyph glyph-name="idieresis" unicode="&#xef;" horiz-adv-x="288" 
d="M58 0v500h172v-500h-172zM30 562q-35 0 -57.5 23t-22.5 57t22.5 57t57.5 23t57.5 -23t22.5 -57t-22.5 -57t-57.5 -23zM258 562q-35 0 -57.5 23t-22.5 57t22.5 57t57.5 23t57.5 -23t22.5 -57t-22.5 -57t-57.5 -23z" />
    <glyph glyph-name="eth" unicode="&#xf0;" horiz-adv-x="566" 
d="M274 -12q-48 0 -91 17t-75 48.5t-51 76t-19 100.5q0 55 17.5 97.5t46 71.5t64.5 44t74 15q24 0 48.5 -7t43.5 -24q-25 61 -74 109l-142 -71l-44 74l111 56q-18 11 -38 22.5t-42 22.5l74 104q35 -18 70 -38.5t68 -44.5l143 72l44 -75l-116 -58q60 -60 97 -140.5t37 -189.5
q0 -61 -17 -112.5t-48.5 -89t-77 -59t-103.5 -21.5zM280 126q16 0 31 7t25.5 23t17 41.5t6.5 62.5v20.5t-1 18.5q-18 18 -38.5 25.5t-43.5 7.5q-35 0 -59 -23t-24 -79q0 -53 25.5 -78.5t60.5 -25.5z" />
    <glyph glyph-name="ntilde" unicode="&#xf1;" horiz-adv-x="582" 
d="M58 0v500h140l12 -60h4q30 29 68.5 50.5t89.5 21.5q82 0 119 -55.5t37 -148.5v-308h-172v286q0 48 -12 64t-38 16q-24 0 -40 -10t-36 -28v-328h-172zM378 572q-23 0 -41.5 8.5t-33.5 19t-27 19.5t-22 9q-12 0 -19.5 -9.5t-10.5 -36.5l-106 6q2 85 37 121.5t95 36.5
q22 0 41 -9t34 -19.5t27 -19t22 -8.5q12 0 19.5 9.5t10.5 36.5l106 -6q-2 -85 -37 -121.5t-95 -36.5z" />
    <glyph glyph-name="ograve" unicode="&#xf2;" horiz-adv-x="560" 
d="M280 -12q-48 0 -93 17.5t-79.5 51t-55 82.5t-20.5 111t20.5 111t55 82.5t79.5 51t93 17.5t92.5 -17.5t79 -51t55.5 -82.5t21 -111t-21 -111t-55.5 -82.5t-79 -51t-92.5 -17.5zM280 126q39 0 55.5 33.5t16.5 90.5t-16.5 90.5t-55.5 33.5t-55.5 -33.5t-16.5 -90.5
t16.5 -90.5t55.5 -33.5zM260 572l-190 158l116 114l158 -188z" />
    <glyph glyph-name="oacute" unicode="&#xf3;" horiz-adv-x="560" 
d="M280 -12q-48 0 -93 17.5t-79.5 51t-55 82.5t-20.5 111t20.5 111t55 82.5t79.5 51t93 17.5t92.5 -17.5t79 -51t55.5 -82.5t21 -111t-21 -111t-55.5 -82.5t-79 -51t-92.5 -17.5zM280 126q39 0 55.5 33.5t16.5 90.5t-16.5 90.5t-55.5 33.5t-55.5 -33.5t-16.5 -90.5
t16.5 -90.5t55.5 -33.5zM300 572l-84 84l158 188l116 -114z" />
    <glyph glyph-name="ocircumflex" unicode="&#xf4;" horiz-adv-x="560" 
d="M280 -12q-48 0 -93 17.5t-79.5 51t-55 82.5t-20.5 111t20.5 111t55 82.5t79.5 51t93 17.5t92.5 -17.5t79 -51t55.5 -82.5t21 -111t-21 -111t-55.5 -82.5t-79 -51t-92.5 -17.5zM280 126q39 0 55.5 33.5t16.5 90.5t-16.5 90.5t-55.5 33.5t-55.5 -33.5t-16.5 -90.5
t16.5 -90.5t55.5 -33.5zM86 618l106 128h176l106 -128l-64 -60l-128 84h-4l-128 -84z" />
    <glyph glyph-name="otilde" unicode="&#xf5;" horiz-adv-x="560" 
d="M280 -12q-48 0 -93 17.5t-79.5 51t-55 82.5t-20.5 111t20.5 111t55 82.5t79.5 51t93 17.5t92.5 -17.5t79 -51t55.5 -82.5t21 -111t-21 -111t-55.5 -82.5t-79 -51t-92.5 -17.5zM280 126q39 0 55.5 33.5t16.5 90.5t-16.5 90.5t-55.5 33.5t-55.5 -33.5t-16.5 -90.5
t16.5 -90.5t55.5 -33.5zM344 572q-23 0 -41.5 8.5t-33.5 19t-27 19.5t-22 9q-12 0 -19.5 -9.5t-10.5 -36.5l-106 6q2 85 37 121.5t95 36.5q22 0 41 -9t34 -19.5t27 -19t22 -8.5q12 0 19.5 9.5t10.5 36.5l106 -6q-2 -85 -37 -121.5t-95 -36.5z" />
    <glyph glyph-name="odieresis" unicode="&#xf6;" horiz-adv-x="560" 
d="M280 -12q-48 0 -93 17.5t-79.5 51t-55 82.5t-20.5 111t20.5 111t55 82.5t79.5 51t93 17.5t92.5 -17.5t79 -51t55.5 -82.5t21 -111t-21 -111t-55.5 -82.5t-79 -51t-92.5 -17.5zM280 126q39 0 55.5 33.5t16.5 90.5t-16.5 90.5t-55.5 33.5t-55.5 -33.5t-16.5 -90.5
t16.5 -90.5t55.5 -33.5zM166 562q-35 0 -57.5 23t-22.5 57t22.5 57t57.5 23t57.5 -23t22.5 -57t-22.5 -57t-57.5 -23zM394 562q-35 0 -57.5 23t-22.5 57t22.5 57t57.5 23t57.5 -23t22.5 -57t-22.5 -57t-57.5 -23z" />
    <glyph glyph-name="divide" unicode="&#xf7;" horiz-adv-x="540" 
d="M34 270v120h472v-120h-472zM270 64q-39 0 -65.5 24t-26.5 62t26.5 62t65.5 24t65.5 -24t26.5 -62t-26.5 -62t-65.5 -24zM270 424q-39 0 -65.5 24t-26.5 62t26.5 62t65.5 24t65.5 -24t26.5 -62t-26.5 -62t-65.5 -24z" />
    <glyph glyph-name="oslash" unicode="&#xf8;" horiz-adv-x="560" 
d="M280 -12q-71 0 -131 37l-41 -51l-62 48l44 55q-27 32 -42.5 75.5t-15.5 97.5q0 62 20.5 111t55 82.5t79.5 51t93 17.5q71 0 130 -36l42 52l62 -48l-45 -56q27 -32 43 -76t16 -98q0 -62 -21 -111t-55.5 -82.5t-79 -51t-92.5 -17.5zM198 260q0 -13 0.5 -24t1.5 -21l123 152
q-17 13 -43 13q-39 0 -60.5 -33t-21.5 -87zM280 120q39 0 60.5 33t21.5 87q0 26 -3 47l-123 -153q17 -14 44 -14z" />
    <glyph glyph-name="ugrave" unicode="&#xf9;" horiz-adv-x="578" 
d="M210 -12q-41 0 -70.5 14.5t-48.5 41t-28 64t-9 84.5v308h172v-286q0 -48 12 -64t38 -16q24 0 39.5 10t32.5 34v322h172v-500h-140l-12 66h-4q-30 -36 -66.5 -57t-87.5 -21zM270 572l-190 158l116 114l158 -188z" />
    <glyph glyph-name="uacute" unicode="&#xfa;" horiz-adv-x="578" 
d="M210 -12q-41 0 -70.5 14.5t-48.5 41t-28 64t-9 84.5v308h172v-286q0 -48 12 -64t38 -16q24 0 39.5 10t32.5 34v322h172v-500h-140l-12 66h-4q-30 -36 -66.5 -57t-87.5 -21zM310 572l-84 84l158 188l116 -114z" />
    <glyph glyph-name="ucircumflex" unicode="&#xfb;" horiz-adv-x="578" 
d="M210 -12q-41 0 -70.5 14.5t-48.5 41t-28 64t-9 84.5v308h172v-286q0 -48 12 -64t38 -16q24 0 39.5 10t32.5 34v322h172v-500h-140l-12 66h-4q-30 -36 -66.5 -57t-87.5 -21zM96 618l106 128h176l106 -128l-64 -60l-128 84h-4l-128 -84z" />
    <glyph glyph-name="udieresis" unicode="&#xfc;" horiz-adv-x="578" 
d="M210 -12q-41 0 -70.5 14.5t-48.5 41t-28 64t-9 84.5v308h172v-286q0 -48 12 -64t38 -16q24 0 39.5 10t32.5 34v322h172v-500h-140l-12 66h-4q-30 -36 -66.5 -57t-87.5 -21zM176 562q-35 0 -57.5 23t-22.5 57t22.5 57t57.5 23t57.5 -23t22.5 -57t-22.5 -57t-57.5 -23z
M404 562q-35 0 -57.5 23t-22.5 57t22.5 57t57.5 23t57.5 -23t22.5 -57t-22.5 -57t-57.5 -23z" />
    <glyph glyph-name="yacute" unicode="&#xfd;" horiz-adv-x="542" 
d="M132 -188q-26 0 -42.5 2.5t-33.5 7.5l30 130q7 -2 15.5 -4t16.5 -2q35 0 52.5 13.5t25.5 36.5l6 22l-190 482h172l60 -192q11 -35 19 -69.5t17 -72.5h4q8 36 15.5 71t16.5 71l50 192h164l-168 -492q-20 -51 -40.5 -88t-47.5 -61t-61.5 -35.5t-80.5 -11.5zM296 572l-84 84
l158 188l116 -114z" />
    <glyph glyph-name="thorn" unicode="&#xfe;" horiz-adv-x="580" 
d="M58 -176v872h172v-163l-4 -65q23 21 52.5 32.5t61.5 11.5q46 0 84 -18t64.5 -51t41 -80t14.5 -105q0 -65 -17.5 -115t-46.5 -84.5t-66.5 -52.5t-77.5 -18q-36 0 -61.5 11.5t-48.5 32.5l4 -70v-138h-172zM294 128q30 0 52 28t22 100q0 62 -17.5 89t-52.5 27
q-20 0 -35.5 -8t-32.5 -28v-184q15 -14 31 -19t33 -5z" />
    <glyph glyph-name="ydieresis" unicode="&#xff;" horiz-adv-x="542" 
d="M132 -188q-26 0 -42.5 2.5t-33.5 7.5l30 130q7 -2 15.5 -4t16.5 -2q35 0 52.5 13.5t25.5 36.5l6 22l-190 482h172l60 -192q11 -35 19 -69.5t17 -72.5h4q8 36 15.5 71t16.5 71l50 192h164l-168 -492q-20 -51 -40.5 -88t-47.5 -61t-61.5 -35.5t-80.5 -11.5zM162 562
q-35 0 -57.5 23t-22.5 57t22.5 57t57.5 23t57.5 -23t22.5 -57t-22.5 -57t-57.5 -23zM390 562q-35 0 -57.5 23t-22.5 57t22.5 57t57.5 23t57.5 -23t22.5 -57t-22.5 -57t-57.5 -23z" />
    <glyph glyph-name="Amacron" unicode="&#x100;" horiz-adv-x="584" 
d="M240 316l-11 -45h120l-11 45q-12 47 -24 102t-24 104h-4q-11 -50 -22.5 -104.5t-23.5 -101.5zM-10 0l198 650h208l198 -650h-182l-32 138h-182l-32 -138h-176zM130 716v108h316v-108h-316z" />
    <glyph glyph-name="amacron" unicode="&#x101;" horiz-adv-x="536" 
d="M188 -12q-35 0 -63 12.5t-47.5 33.5t-29.5 49t-10 59q0 78 64 122.5t208 59.5q-6 52 -70 52q-27 0 -57 -10.5t-69 -31.5l-60 112q53 32 107 49t113 17q97 0 152.5 -55.5t55.5 -178.5v-278h-140l-12 48h-4q-30 -27 -63.5 -43.5t-74.5 -16.5zM248 120q21 0 34.5 9.5
t27.5 24.5v68q-62 -9 -85 -27t-23 -39q0 -36 46 -36zM127 588v108h308v-108h-308z" />
    <glyph glyph-name="Abreve" unicode="&#x102;" horiz-adv-x="584" 
d="M240 316l-11 -45h120l-11 45q-12 47 -24 102t-24 104h-4q-11 -50 -22.5 -104.5t-23.5 -101.5zM-10 0l198 650h208l198 -650h-182l-32 138h-182l-32 -138h-176zM288 694q-77 0 -119.5 34t-50.5 106l92 16q7 -29 27.5 -43.5t50.5 -14.5t50.5 14.5t27.5 43.5l92 -16
q-8 -72 -50.5 -106t-119.5 -34z" />
    <glyph glyph-name="abreve" unicode="&#x103;" horiz-adv-x="536" 
d="M188 -12q-35 0 -63 12.5t-47.5 33.5t-29.5 49t-10 59q0 78 64 122.5t208 59.5q-6 52 -70 52q-27 0 -57 -10.5t-69 -31.5l-60 112q53 32 107 49t113 17q97 0 152.5 -55.5t55.5 -178.5v-278h-140l-12 48h-4q-30 -27 -63.5 -43.5t-74.5 -16.5zM248 120q21 0 34.5 9.5
t27.5 24.5v68q-62 -9 -85 -27t-23 -39q0 -36 46 -36zM281 572q-88 0 -130 44.5t-44 115.5l96 16q5 -30 23.5 -50t54.5 -20t54.5 20t23.5 50l96 -16q-2 -71 -44 -115.5t-130 -44.5z" />
    <glyph glyph-name="Aogonek" unicode="&#x104;" horiz-adv-x="584" 
d="M498 -228q-51 0 -86.5 25.5t-35.5 72.5q0 24 8.5 45t21.5 38t27.5 29t26.5 18h-48l-32 138h-182l-32 -138h-176l198 650h208l198 -650q-22 0 -39.5 -7.5t-29.5 -19.5t-18.5 -27t-6.5 -30q0 -17 10.5 -25.5t25.5 -8.5q11 0 21 4.5t17 9.5l38 -86q-21 -17 -53 -27.5
t-61 -10.5zM240 316l-11 -45h120l-11 45q-12 47 -24 102t-24 104h-4q-11 -50 -22.5 -104.5t-23.5 -101.5z" />
    <glyph glyph-name="aogonek" unicode="&#x105;" horiz-adv-x="536" 
d="M392 -212q-47 0 -79.5 23.5t-32.5 70.5q0 22 7 41t17.5 33.5t21 24.5t18.5 15l-14 52h-4q-30 -27 -63.5 -43.5t-74.5 -16.5q-35 0 -63 12.5t-47.5 33.5t-29.5 49t-10 59q0 78 64 122.5t208 59.5q-6 52 -70 52q-27 0 -57 -10.5t-69 -31.5l-60 112q53 32 107 49t113 17
q97 0 152.5 -55.5t55.5 -178.5v-278q-51 -12 -69.5 -34.5t-18.5 -43.5q0 -18 12.5 -26t27.5 -8q9 0 18.5 3.5t15.5 8.5l34 -76q-21 -17 -52.5 -26.5t-57.5 -9.5zM248 120q21 0 34.5 9.5t27.5 24.5v68q-62 -9 -85 -27t-23 -39q0 -36 46 -36z" />
    <glyph glyph-name="Cacute" unicode="&#x106;" horiz-adv-x="586" 
d="M354 -12q-62 0 -118.5 20.5t-99 62t-67.5 104t-25 145.5q0 82 26 145.5t69.5 107t100 66.5t118.5 23q65 0 116 -25.5t86 -60.5l-90 -110q-24 21 -49.5 34.5t-58.5 13.5q-29 0 -54.5 -13t-45 -37t-31 -59t-11.5 -79q0 -92 38.5 -141t101.5 -49q38 0 67.5 16.5t50.5 39.5
l90 -108q-42 -48 -96.5 -72t-117.5 -24zM340 674l-76 86l182 144l90 -110z" />
    <glyph glyph-name="cacute" unicode="&#x107;" horiz-adv-x="472" 
d="M284 -12q-53 0 -99 17.5t-80 51t-53.5 82.5t-19.5 111t22 111t59 82.5t85.5 51t101.5 17.5q45 0 81 -14t65 -38l-80 -110q-17 14 -29.5 19t-26.5 5q-48 0 -75 -33.5t-27 -90.5t27.5 -90.5t68.5 -33.5q21 0 41.5 9t38.5 23l66 -112q-38 -33 -82.5 -45.5t-83.5 -12.5z
M315 572l-84 84l158 188l116 -114z" />
    <glyph glyph-name="Ccircumflex" unicode="&#x108;" horiz-adv-x="586" 
d="M354 -12q-62 0 -118.5 20.5t-99 62t-67.5 104t-25 145.5q0 82 26 145.5t69.5 107t100 66.5t118.5 23q65 0 116 -25.5t86 -60.5l-90 -110q-24 21 -49.5 34.5t-58.5 13.5q-29 0 -54.5 -13t-45 -37t-31 -59t-11.5 -79q0 -92 38.5 -141t101.5 -49q38 0 67.5 16.5t50.5 39.5
l90 -108q-42 -48 -96.5 -72t-117.5 -24zM170 724l84 110h188l84 -110l-74 -44l-102 80h-4l-102 -80z" />
    <glyph glyph-name="ccircumflex" unicode="&#x109;" horiz-adv-x="472" 
d="M284 -12q-53 0 -99 17.5t-80 51t-53.5 82.5t-19.5 111t22 111t59 82.5t85.5 51t101.5 17.5q45 0 81 -14t65 -38l-80 -110q-17 14 -29.5 19t-26.5 5q-48 0 -75 -33.5t-27 -90.5t27.5 -90.5t68.5 -33.5q21 0 41.5 9t38.5 23l66 -112q-38 -33 -82.5 -45.5t-83.5 -12.5z
M101 618l106 128h176l106 -128l-64 -60l-128 84h-4l-128 -84z" />
    <glyph glyph-name="Cdotaccent" unicode="&#x10a;" horiz-adv-x="586" 
d="M354 -12q-62 0 -118.5 20.5t-99 62t-67.5 104t-25 145.5q0 82 26 145.5t69.5 107t100 66.5t118.5 23q65 0 116 -25.5t86 -60.5l-90 -110q-24 21 -49.5 34.5t-58.5 13.5q-29 0 -54.5 -13t-45 -37t-31 -59t-11.5 -79q0 -92 38.5 -141t101.5 -49q38 0 67.5 16.5t50.5 39.5
l90 -108q-42 -48 -96.5 -72t-117.5 -24zM348 696q-42 0 -69 24t-27 62t27 62t69 24t69 -24t27 -62t-27 -62t-69 -24z" />
    <glyph glyph-name="cdotaccent" unicode="&#x10b;" horiz-adv-x="472" 
d="M284 -12q-53 0 -99 17.5t-80 51t-53.5 82.5t-19.5 111t22 111t59 82.5t85.5 51t101.5 17.5q45 0 81 -14t65 -38l-80 -110q-17 14 -29.5 19t-26.5 5q-48 0 -75 -33.5t-27 -90.5t27.5 -90.5t68.5 -33.5q21 0 41.5 9t38.5 23l66 -112q-38 -33 -82.5 -45.5t-83.5 -12.5z
M295 562q-41 0 -66.5 24t-25.5 62t25.5 62t66.5 24t66.5 -24t25.5 -62t-25.5 -62t-66.5 -24z" />
    <glyph glyph-name="Ccaron" unicode="&#x10c;" horiz-adv-x="586" 
d="M354 -12q-62 0 -118.5 20.5t-99 62t-67.5 104t-25 145.5q0 82 26 145.5t69.5 107t100 66.5t118.5 23q65 0 116 -25.5t86 -60.5l-90 -110q-24 21 -49.5 34.5t-58.5 13.5q-29 0 -54.5 -13t-45 -37t-31 -59t-11.5 -79q0 -92 38.5 -141t101.5 -49q38 0 67.5 16.5t50.5 39.5
l90 -108q-42 -48 -96.5 -72t-117.5 -24zM254 700l-84 110l74 44l102 -80h4l102 80l74 -44l-84 -110h-188z" />
    <glyph glyph-name="ccaron" unicode="&#x10d;" horiz-adv-x="472" 
d="M284 -12q-53 0 -99 17.5t-80 51t-53.5 82.5t-19.5 111t22 111t59 82.5t85.5 51t101.5 17.5q45 0 81 -14t65 -38l-80 -110q-17 14 -29.5 19t-26.5 5q-48 0 -75 -33.5t-27 -90.5t27.5 -90.5t68.5 -33.5q21 0 41.5 9t38.5 23l66 -112q-38 -33 -82.5 -45.5t-83.5 -12.5z
M207 578l-106 128l64 60l128 -84h4l128 84l64 -60l-106 -128h-176z" />
    <glyph glyph-name="Dcaron" unicode="&#x10e;" horiz-adv-x="642" 
d="M72 0v650h192q74 0 135.5 -18t105.5 -57t68.5 -100t24.5 -147t-24 -148t-67.5 -102t-103 -59t-129.5 -19h-202zM244 138h10q35 0 66 8.5t53.5 29.5t35.5 58t13 94t-13 93t-35.5 56t-53.5 27.5t-66 7.5h-10v-374zM228 700l-84 110l74 44l102 -80h4l102 80l74 -44l-84 -110
h-188z" />
    <glyph glyph-name="dcaron" unicode="&#x10f;" horiz-adv-x="630" 
d="M240 -12q-47 0 -84.5 18t-64 52t-41 82.5t-14.5 109.5t17.5 110t46 82.5t65.5 51.5t75 18q41 0 67 -13.5t49 -36.5l-6 72v162h172v-696h-140l-12 46h-4q-26 -26 -59.5 -42t-66.5 -16zM286 128q20 0 35 7.5t29 28.5v184q-15 14 -33 19t-35 5q-27 0 -48.5 -27t-21.5 -93
q0 -68 19.5 -96t54.5 -28zM560 548l-6 226h108l-2 -74l-28 -152h-72z" />
    <glyph glyph-name="Dcroat" unicode="&#x110;" horiz-adv-x="668" 
d="M24 294v74l74 6v276h192q74 0 135.5 -18t105.5 -57t68.5 -100t24.5 -147t-24 -148t-67.5 -102t-103 -59t-129.5 -19h-202v294h-74zM270 138h10q35 0 66 8.5t53.5 29.5t35.5 58t13 94t-13 93t-35.5 56t-53.5 27.5t-66 7.5h-10v-138h116v-80h-116v-156z" />
    <glyph glyph-name="dcroat" unicode="&#x111;" horiz-adv-x="580" 
d="M240 -12q-47 0 -84.5 17t-64 48.5t-41 75.5t-14.5 97q0 52 17.5 95.5t46 74t65.5 47.5t75 17q41 0 67 -13.5t49 -36.5l-6 72v68h-144v80h144v66h172v-66h66v-74l-66 -5v-551h-144l-10 40h-4q-25 -24 -57 -38t-67 -14zM286 128q20 0 35 7.5t29 28.5v132q-15 14 -33 19
t-35 5q-27 0 -48.5 -22t-21.5 -70q0 -51 19.5 -75.5t54.5 -24.5z" />
    <glyph glyph-name="Emacron" unicode="&#x112;" horiz-adv-x="556" 
d="M72 0v650h420v-144h-248v-102h212v-144h-212v-116h258v-144h-430zM132 716v108h316v-108h-316z" />
    <glyph glyph-name="emacron" unicode="&#x113;" horiz-adv-x="526" 
d="M290 -12q-55 0 -102 17.5t-81.5 51t-54.5 82.5t-20 111q0 61 20.5 109.5t54 82.5t76.5 52t89 18q55 0 96 -19t68 -52t40.5 -77t13.5 -94q0 -23 -2.5 -43t-4.5 -29h-285q12 -45 43 -62.5t73 -17.5q26 0 50.5 7.5t51.5 22.5l56 -102q-41 -29 -90.5 -43.5t-91.5 -14.5z
M196 310h148q0 29 -14.5 50.5t-53.5 21.5q-29 0 -50.5 -17t-29.5 -55zM118 588v108h308v-108h-308z" />
    <glyph glyph-name="Ebreve" unicode="&#x114;" horiz-adv-x="556" 
d="M72 0v650h420v-144h-248v-102h212v-144h-212v-116h258v-144h-430zM290 694q-77 0 -119.5 34t-50.5 106l92 16q7 -29 27.5 -43.5t50.5 -14.5t50.5 14.5t27.5 43.5l92 -16q-8 -72 -50.5 -106t-119.5 -34z" />
    <glyph glyph-name="ebreve" unicode="&#x115;" horiz-adv-x="526" 
d="M290 -12q-55 0 -102 17.5t-81.5 51t-54.5 82.5t-20 111q0 61 20.5 109.5t54 82.5t76.5 52t89 18q55 0 96 -19t68 -52t40.5 -77t13.5 -94q0 -23 -2.5 -43t-4.5 -29h-285q12 -45 43 -62.5t73 -17.5q26 0 50.5 7.5t51.5 22.5l56 -102q-41 -29 -90.5 -43.5t-91.5 -14.5z
M196 310h148q0 29 -14.5 50.5t-53.5 21.5q-29 0 -50.5 -17t-29.5 -55zM272 572q-88 0 -130 44.5t-44 115.5l96 16q5 -30 23.5 -50t54.5 -20t54.5 20t23.5 50l96 -16q-2 -71 -44 -115.5t-130 -44.5z" />
    <glyph glyph-name="Edotaccent" unicode="&#x116;" horiz-adv-x="556" 
d="M72 0v650h420v-144h-248v-102h212v-144h-212v-116h258v-144h-430zM290 696q-42 0 -69 24t-27 62t27 62t69 24t69 -24t27 -62t-27 -62t-69 -24z" />
    <glyph glyph-name="edotaccent" unicode="&#x117;" horiz-adv-x="526" 
d="M290 -12q-55 0 -102 17.5t-81.5 51t-54.5 82.5t-20 111q0 61 20.5 109.5t54 82.5t76.5 52t89 18q55 0 96 -19t68 -52t40.5 -77t13.5 -94q0 -23 -2.5 -43t-4.5 -29h-285q12 -45 43 -62.5t73 -17.5q26 0 50.5 7.5t51.5 22.5l56 -102q-41 -29 -90.5 -43.5t-91.5 -14.5z
M196 310h148q0 29 -14.5 50.5t-53.5 21.5q-29 0 -50.5 -17t-29.5 -55zM272 562q-41 0 -66.5 24t-25.5 62t25.5 62t66.5 24t66.5 -24t25.5 -62t-25.5 -62t-66.5 -24z" />
    <glyph glyph-name="Eogonek" unicode="&#x118;" horiz-adv-x="556" 
d="M410 -228q-51 0 -86.5 25.5t-35.5 72.5q0 24 8 44.5t20 37t26 28.5t26 20h-296v650h420v-144h-248v-102h212v-144h-212v-116h258v-144h-6q-17 0 -32.5 -7.5t-27 -19.5t-18 -27t-6.5 -30q0 -18 12.5 -26t27.5 -8q9 0 18 4.5t16 9.5l38 -86q-21 -17 -53 -27.5t-61 -10.5z
" />
    <glyph glyph-name="eogonek" unicode="&#x119;" horiz-adv-x="526" 
d="M364 -212q-47 0 -78.5 23.5t-31.5 70.5q0 36 18 63.5t36 44.5q-8 -2 -11.5 -2h-6.5q-55 0 -102 17.5t-81.5 51t-54.5 82.5t-20 111q0 61 20.5 109.5t54 82.5t76.5 52t89 18q55 0 96 -19t68 -52t40.5 -77t13.5 -94q0 -23 -2.5 -43t-4.5 -29h-285q12 -45 43 -62.5t73 -17.5
q26 0 50.5 7.5t51.5 22.5l56 -102q-33 -23 -53.5 -39.5t-32.5 -30.5t-16 -27t-4 -27q0 -17 12 -25.5t29 -8.5q9 0 17.5 3.5t15.5 8.5l34 -76q-21 -17 -52.5 -26.5t-57.5 -9.5zM196 310h148q0 29 -14.5 50.5t-53.5 21.5q-29 0 -50.5 -17t-29.5 -55z" />
    <glyph glyph-name="Ecaron" unicode="&#x11a;" horiz-adv-x="556" 
d="M72 0v650h420v-144h-248v-102h212v-144h-212v-116h258v-144h-430zM196 700l-84 110l74 44l102 -80h4l102 80l74 -44l-84 -110h-188z" />
    <glyph glyph-name="ecaron" unicode="&#x11b;" horiz-adv-x="526" 
d="M290 -12q-55 0 -102 17.5t-81.5 51t-54.5 82.5t-20 111q0 61 20.5 109.5t54 82.5t76.5 52t89 18q55 0 96 -19t68 -52t40.5 -77t13.5 -94q0 -23 -2.5 -43t-4.5 -29h-285q12 -45 43 -62.5t73 -17.5q26 0 50.5 7.5t51.5 22.5l56 -102q-41 -29 -90.5 -43.5t-91.5 -14.5z
M196 310h148q0 29 -14.5 50.5t-53.5 21.5q-29 0 -50.5 -17t-29.5 -55zM184 578l-106 128l64 60l128 -84h4l128 84l64 -60l-106 -128h-176z" />
    <glyph glyph-name="Gcircumflex" unicode="&#x11c;" horiz-adv-x="646" 
d="M372 -12q-68 0 -128 20.5t-104.5 62t-70 104t-25.5 145.5q0 82 26 145.5t70.5 107t103.5 66.5t124 23q72 0 124.5 -25.5t87.5 -60.5l-90 -110q-24 21 -50.5 34.5t-65.5 13.5q-33 0 -61 -13t-49 -37t-32.5 -59t-11.5 -79q0 -92 41 -141t129 -49q14 0 27.5 3t22.5 9v90h-96
v140h248v-310q-35 -33 -93 -56.5t-127 -23.5zM194 724l84 110h188l84 -110l-74 -44l-102 80h-4l-102 -80z" />
    <glyph glyph-name="gcircumflex" unicode="&#x11d;" horiz-adv-x="546" 
d="M240 -206q-43 0 -81 6.5t-66.5 21.5t-45.5 38.5t-17 57.5q0 59 70 96v4q-20 14 -33 34t-13 52q0 26 15 51t41 43v4q-27 18 -47.5 51t-20.5 77q0 46 18 80.5t48 57t68.5 33.5t79.5 11q44 0 80 -12h186v-124h-72q3 -9 5.5 -23t2.5 -29q0 -44 -16 -75.5t-43 -51.5t-64 -29.5
t-79 -9.5q-25 0 -56 7q-8 -7 -10 -12.5t-2 -16.5q0 -17 16 -23.5t54 -6.5h75q94 0 145.5 -30.5t51.5 -99.5q0 -41 -20.5 -74.5t-58 -57.5t-91 -37t-120.5 -13zM256 260q24 0 39 17t15 53q0 35 -15 51.5t-39 16.5t-39 -16.5t-15 -51.5q0 -36 15 -53t39 -17zM268 -100
q42 0 70 12.5t28 33.5q0 20 -17.5 25t-49.5 5h-39q-30 0 -45.5 1.5t-26.5 4.5q-9 -9 -13.5 -17t-4.5 -19q0 -24 27 -35t71 -11zM90 618l106 128h176l106 -128l-64 -60l-128 84h-4l-128 -84z" />
    <glyph glyph-name="Gbreve" unicode="&#x11e;" horiz-adv-x="646" 
d="M372 -12q-68 0 -128 20.5t-104.5 62t-70 104t-25.5 145.5q0 82 26 145.5t70.5 107t103.5 66.5t124 23q72 0 124.5 -25.5t87.5 -60.5l-90 -110q-24 21 -50.5 34.5t-65.5 13.5q-33 0 -61 -13t-49 -37t-32.5 -59t-11.5 -79q0 -92 41 -141t129 -49q14 0 27.5 3t22.5 9v90h-96
v140h248v-310q-35 -33 -93 -56.5t-127 -23.5zM372 694q-77 0 -119.5 34t-50.5 106l92 16q7 -29 27.5 -43.5t50.5 -14.5t50.5 14.5t27.5 43.5l92 -16q-8 -72 -50.5 -106t-119.5 -34z" />
    <glyph glyph-name="gbreve" unicode="&#x11f;" horiz-adv-x="546" 
d="M240 -206q-43 0 -81 6.5t-66.5 21.5t-45.5 38.5t-17 57.5q0 59 70 96v4q-20 14 -33 34t-13 52q0 26 15 51t41 43v4q-27 18 -47.5 51t-20.5 77q0 46 18 80.5t48 57t68.5 33.5t79.5 11q44 0 80 -12h186v-124h-72q3 -9 5.5 -23t2.5 -29q0 -44 -16 -75.5t-43 -51.5t-64 -29.5
t-79 -9.5q-25 0 -56 7q-8 -7 -10 -12.5t-2 -16.5q0 -17 16 -23.5t54 -6.5h75q94 0 145.5 -30.5t51.5 -99.5q0 -41 -20.5 -74.5t-58 -57.5t-91 -37t-120.5 -13zM256 260q24 0 39 17t15 53q0 35 -15 51.5t-39 16.5t-39 -16.5t-15 -51.5q0 -36 15 -53t39 -17zM268 -100
q42 0 70 12.5t28 33.5q0 20 -17.5 25t-49.5 5h-39q-30 0 -45.5 1.5t-26.5 4.5q-9 -9 -13.5 -17t-4.5 -19q0 -24 27 -35t71 -11zM284 572q-88 0 -130 44.5t-44 115.5l96 16q5 -30 23.5 -50t54.5 -20t54.5 20t23.5 50l96 -16q-2 -71 -44 -115.5t-130 -44.5z" />
    <glyph glyph-name="Gdotaccent" unicode="&#x120;" horiz-adv-x="646" 
d="M372 -12q-68 0 -128 20.5t-104.5 62t-70 104t-25.5 145.5q0 82 26 145.5t70.5 107t103.5 66.5t124 23q72 0 124.5 -25.5t87.5 -60.5l-90 -110q-24 21 -50.5 34.5t-65.5 13.5q-33 0 -61 -13t-49 -37t-32.5 -59t-11.5 -79q0 -92 41 -141t129 -49q14 0 27.5 3t22.5 9v90h-96
v140h248v-310q-35 -33 -93 -56.5t-127 -23.5zM372 696q-42 0 -69 24t-27 62t27 62t69 24t69 -24t27 -62t-27 -62t-69 -24z" />
    <glyph glyph-name="gdotaccent" unicode="&#x121;" horiz-adv-x="546" 
d="M240 -206q-43 0 -81 6.5t-66.5 21.5t-45.5 38.5t-17 57.5q0 59 70 96v4q-20 14 -33 34t-13 52q0 26 15 51t41 43v4q-27 18 -47.5 51t-20.5 77q0 46 18 80.5t48 57t68.5 33.5t79.5 11q44 0 80 -12h186v-124h-72q3 -9 5.5 -23t2.5 -29q0 -44 -16 -75.5t-43 -51.5t-64 -29.5
t-79 -9.5q-25 0 -56 7q-8 -7 -10 -12.5t-2 -16.5q0 -17 16 -23.5t54 -6.5h75q94 0 145.5 -30.5t51.5 -99.5q0 -41 -20.5 -74.5t-58 -57.5t-91 -37t-120.5 -13zM256 260q24 0 39 17t15 53q0 35 -15 51.5t-39 16.5t-39 -16.5t-15 -51.5q0 -36 15 -53t39 -17zM268 -100
q42 0 70 12.5t28 33.5q0 20 -17.5 25t-49.5 5h-39q-30 0 -45.5 1.5t-26.5 4.5q-9 -9 -13.5 -17t-4.5 -19q0 -24 27 -35t71 -11zM284 562q-41 0 -66.5 24t-25.5 62t25.5 62t66.5 24t66.5 -24t25.5 -62t-25.5 -62t-66.5 -24z" />
    <glyph glyph-name="uni0122" unicode="&#x122;" horiz-adv-x="646" 
d="M372 -12q-68 0 -128 20.5t-104.5 62t-70 104t-25.5 145.5q0 82 26 145.5t70.5 107t103.5 66.5t124 23q72 0 124.5 -25.5t87.5 -60.5l-90 -110q-24 21 -50.5 34.5t-65.5 13.5q-33 0 -61 -13t-49 -37t-32.5 -59t-11.5 -79q0 -92 41 -141t129 -49q14 0 27.5 3t22.5 9v90h-96
v140h248v-310q-35 -33 -93 -56.5t-127 -23.5zM260 -244l-12 66q57 3 78.5 11t21.5 25q0 12 -13.5 20.5t-46.5 11.5l32 60q43 -3 71.5 -10t46 -17.5t25 -25t7.5 -33.5q0 -54 -55 -79.5t-155 -28.5z" />
    <glyph glyph-name="uni0123" unicode="&#x123;" horiz-adv-x="546" 
d="M240 -206q-43 0 -81 6.5t-66.5 21.5t-45.5 38.5t-17 57.5q0 59 70 96v4q-20 14 -33 34t-13 52q0 26 15 51t41 43v4q-27 18 -47.5 51t-20.5 77q0 46 18 80.5t48 57t68.5 33.5t79.5 11q44 0 80 -12h186v-124h-72q3 -9 5.5 -23t2.5 -29q0 -44 -16 -75.5t-43 -51.5t-64 -29.5
t-79 -9.5q-25 0 -56 7q-8 -7 -10 -12.5t-2 -16.5q0 -17 16 -23.5t54 -6.5h75q94 0 145.5 -30.5t51.5 -99.5q0 -41 -20.5 -74.5t-58 -57.5t-91 -37t-120.5 -13zM256 260q24 0 39 17t15 53q0 35 -15 51.5t-39 16.5t-39 -16.5t-15 -51.5q0 -36 15 -53t39 -17zM268 -100
q42 0 70 12.5t28 33.5q0 20 -17.5 25t-49.5 5h-39q-30 0 -45.5 1.5t-26.5 4.5q-9 -9 -13.5 -17t-4.5 -19q0 -24 27 -35t71 -11zM332 566q-43 3 -71.5 10t-46 17.5t-25 25t-7.5 33.5q0 54 55 79.5t155 28.5l12 -66q-57 -3 -78.5 -11t-21.5 -25q0 -12 13.5 -20.5t46.5 -11.5z
" />
    <glyph glyph-name="Hcircumflex" unicode="&#x124;" horiz-adv-x="682" 
d="M72 0v650h172v-242h194v242h172v-650h-172v258h-194v-258h-172zM162 724l84 110h188l84 -110l-74 -44l-102 80h-4l-102 -80z" />
    <glyph glyph-name="hcircumflex" unicode="&#x125;" horiz-adv-x="582" 
d="M58 0v696h172v-162l-8 -86q26 23 62.5 43.5t87.5 20.5q82 0 119 -55.5t37 -148.5v-308h-172v286q0 48 -12 64t-38 16q-24 0 -40 -10t-36 -28v-328h-172zM-36 774l84 110h188l84 -110l-74 -44l-102 80h-4l-102 -80z" />
    <glyph glyph-name="Hbar" unicode="&#x126;" horiz-adv-x="722" 
d="M22 484v74l70 6v86h172v-86h194v86h172v-86h70v-80h-70v-484h-172v258h-194v-258h-172v484h-70zM264 408h194v76h-194v-76z" />
    <glyph glyph-name="hbar" unicode="&#x127;" horiz-adv-x="582" 
d="M58 0v550h-66v74l66 5v67h172v-66h164v-80h-164v-68l-8 -86q26 23 62.5 43.5t87.5 20.5q82 0 119 -55.5t37 -148.5v-256h-172v234q0 48 -12 64t-38 16q-24 0 -40 -10t-36 -28v-276h-172z" />
    <glyph glyph-name="Itilde" unicode="&#x128;" horiz-adv-x="316" 
d="M72 0v650h172v-650h-172zM228 686q-26 0 -46.5 8t-36.5 18t-28.5 18t-22.5 8q-12 0 -20.5 -8t-11.5 -34l-110 8q2 41 13.5 70t29.5 47t42 26.5t51 8.5q26 0 46.5 -8t36.5 -18t28 -18t23 -8q12 0 20.5 8t11.5 34l110 -8q-2 -41 -13.5 -70t-29.5 -47t-42 -26.5t-51 -8.5z
" />
    <glyph glyph-name="itilde" unicode="&#x129;" horiz-adv-x="288" 
d="M58 0v500h172v-500h-172zM208 572q-23 0 -41.5 8.5t-33.5 19t-27 19.5t-22 9q-12 0 -19.5 -9.5t-10.5 -36.5l-106 6q2 85 37 121.5t95 36.5q22 0 41 -9t34 -19.5t27 -19t22 -8.5q12 0 19.5 9.5t10.5 36.5l106 -6q-2 -85 -37 -121.5t-95 -36.5z" />
    <glyph glyph-name="Imacron" unicode="&#x12a;" horiz-adv-x="316" 
d="M72 0v650h172v-650h-172zM0 716v108h316v-108h-316z" />
    <glyph glyph-name="imacron" unicode="&#x12b;" horiz-adv-x="288" 
d="M58 0v500h172v-500h-172zM-10 588v108h308v-108h-308z" />
    <glyph glyph-name="uni012C" unicode="&#x12c;" horiz-adv-x="316" 
d="M72 0v650h172v-650h-172zM158 694q-77 0 -119.5 34t-50.5 106l92 16q7 -29 27.5 -43.5t50.5 -14.5t50.5 14.5t27.5 43.5l92 -16q-8 -72 -50.5 -106t-119.5 -34z" />
    <glyph glyph-name="uni012D" unicode="&#x12d;" horiz-adv-x="288" 
d="M58 0v500h172v-500h-172zM144 572q-88 0 -130 44.5t-44 115.5l96 16q5 -30 23.5 -50t54.5 -20t54.5 20t23.5 50l96 -16q-2 -71 -44 -115.5t-130 -44.5z" />
    <glyph glyph-name="Iogonek" unicode="&#x12e;" horiz-adv-x="316" 
d="M164 -228q-51 0 -86.5 25.5t-35.5 72.5q0 25 8 45.5t20 37t25 28.5t24 19h-47v650h172v-650q-44 -14 -61 -37t-17 -47q0 -18 12.5 -26t26.5 -8q10 0 19.5 4.5t15.5 9.5l38 -86q-21 -17 -53 -27.5t-61 -10.5z" />
    <glyph glyph-name="iogonek" unicode="&#x12f;" horiz-adv-x="288" 
d="M154 -212q-47 0 -79.5 23.5t-32.5 70.5q0 22 7 41t17 34t21.5 26t20.5 17h-50v500h172v-500q-44 -12 -59 -34.5t-15 -43.5q0 -17 12 -25.5t29 -8.5q8 0 16.5 3.5t16.5 8.5l34 -76q-21 -17 -52.5 -26.5t-57.5 -9.5zM144 562q-42 0 -69 24t-27 62t27 62t69 24t69 -24
t27 -62t-27 -62t-69 -24z" />
    <glyph glyph-name="Idotaccent" unicode="&#x130;" horiz-adv-x="316" 
d="M72 0v650h172v-650h-172zM158 696q-42 0 -69 24t-27 62t27 62t69 24t69 -24t27 -62t-27 -62t-69 -24z" />
    <glyph glyph-name="dotlessi" unicode="&#x131;" horiz-adv-x="288" 
d="M58 0v500h172v-500h-172z" />
    <glyph glyph-name="uni0132" unicode="&#x132;" horiz-adv-x="632" 
d="M72 0v650h172v-650h-172zM366 -188q-35 0 -56 4t-38 10l30 126q11 -3 19 -4.5t17 -1.5q27 0 38.5 16.5t11.5 57.5v630h172v-624q0 -42 -9 -80.5t-31.5 -68.5t-60 -47.5t-93.5 -17.5z" />
    <glyph glyph-name="uni0133" unicode="&#x133;" horiz-adv-x="578" 
d="M58 0v500h172v-500h-172zM144 562q-42 0 -69 24t-27 62t27 62t69 24t69 -24t27 -62t-27 -62t-69 -24zM326 -188q-35 0 -56 4t-38 10l30 126q11 -3 19 -4.5t17 -1.5q27 0 38.5 16.5t11.5 57.5v480h172v-474q0 -42 -9 -80.5t-31.5 -68.5t-60 -47.5t-93.5 -17.5zM434 562
q-42 0 -69 24t-27 62t27 62t69 24t69 -24t27 -62t-27 -62t-69 -24z" />
    <glyph glyph-name="Jcircumflex" unicode="&#x134;" horiz-adv-x="520" 
d="M232 -12q-80 0 -133 30t-89 93l116 87q17 -32 39 -47t43 -15q17 0 30.5 4.5t22.5 16.5t14 32t5 51v410h172v-424q0 -49 -13.5 -92t-40.5 -75.5t-68.5 -51.5t-97.5 -19zM186 724l84 110h188l84 -110l-74 -44l-102 80h-4l-102 -80z" />
    <glyph glyph-name="jcircumflex" unicode="&#x135;" horiz-adv-x="290" 
d="M38 -188q-35 0 -56 4t-38 10l30 126q11 -3 19 -4.5t17 -1.5q27 0 38.5 16.5t11.5 57.5v480h172v-474q0 -42 -9 -80.5t-31.5 -68.5t-60 -47.5t-93.5 -17.5zM-48 618l106 128h176l106 -128l-64 -60l-128 84h-4l-128 -84z" />
    <glyph glyph-name="uni0136" unicode="&#x136;" horiz-adv-x="628" 
d="M72 0v650h172v-242h4l164 242h188l-194 -264l232 -386h-188l-144 250l-62 -88v-162h-172zM226 -244l-12 66q57 3 78.5 11t21.5 25q0 12 -13.5 20.5t-46.5 11.5l32 60q43 -3 71.5 -10t46 -17.5t25 -25t7.5 -33.5q0 -54 -55 -79.5t-155 -28.5z" />
    <glyph glyph-name="uni0137" unicode="&#x137;" horiz-adv-x="568" 
d="M58 0v696h168v-370h4l138 174h186l-178 -208l188 -292h-186l-100 178l-52 -58v-120h-168zM196 -244l-12 66q57 3 78.5 11t21.5 25q0 12 -13.5 20.5t-46.5 11.5l32 60q43 -3 71.5 -10t46 -17.5t25 -25t7.5 -33.5q0 -54 -55 -79.5t-155 -28.5z" />
    <glyph glyph-name="kgreenlandic" unicode="&#x138;" horiz-adv-x="568" 
d="M58 0v500h172v-178h4l134 178h186l-174 -208l184 -292h-186l-100 172l-48 -58v-114h-172z" />
    <glyph glyph-name="Lacute" unicode="&#x139;" horiz-adv-x="530" 
d="M72 0v650h172v-506h246v-144h-418zM154 674l-76 86l182 144l90 -110z" />
    <glyph glyph-name="lacute" unicode="&#x13a;" horiz-adv-x="298" 
d="M212 -12q-44 0 -73.5 13.5t-47.5 38.5t-25.5 59.5t-7.5 76.5v520h172v-526q0 -26 9.5 -35t18.5 -9h8.5t9.5 2l20 -126q-14 -6 -34.5 -10t-49.5 -4zM141 730l-76 86l182 144l90 -110z" />
    <glyph glyph-name="uni013B" unicode="&#x13b;" horiz-adv-x="530" 
d="M72 0v650h172v-506h246v-144h-418zM183 -244l-12 66q57 3 78.5 11t21.5 25q0 12 -13.5 20.5t-46.5 11.5l32 60q43 -3 71.5 -10t46 -17.5t25 -25t7.5 -33.5q0 -54 -55 -79.5t-155 -28.5z" />
    <glyph glyph-name="uni013C" unicode="&#x13c;" horiz-adv-x="298" 
d="M212 -12q-44 0 -73.5 13.5t-47.5 38.5t-25.5 59.5t-7.5 76.5v520h172v-526q0 -26 9.5 -35t18.5 -9h8.5t9.5 2l20 -126q-14 -6 -34.5 -10t-49.5 -4zM90 -244l-12 66q57 3 78.5 11t21.5 25q0 12 -13.5 20.5t-46.5 11.5l32 60q43 -3 71.5 -10t46 -17.5t25 -25t7.5 -33.5
q0 -54 -55 -79.5t-155 -28.5z" />
    <glyph glyph-name="Lcaron" unicode="&#x13d;" horiz-adv-x="530" 
d="M72 0v650h172v-506h246v-144h-418zM360 509l-6 226h108l-2 -74l-28 -152h-72z" />
    <glyph glyph-name="lcaron" unicode="&#x13e;" horiz-adv-x="338" 
d="M212 -12q-44 0 -73.5 13.5t-47.5 38.5t-25.5 59.5t-7.5 76.5v520h172v-526q0 -26 9.5 -35t18.5 -9h8.5t9.5 2l20 -126q-14 -6 -34.5 -10t-49.5 -4zM268 548l-6 226h108l-2 -74l-28 -152h-72z" />
    <glyph glyph-name="Ldot" unicode="&#x13f;" horiz-adv-x="530" 
d="M72 0v650h172v-506h246v-144h-418zM423 226q-44 0 -72 30t-28 74t28 74t72 30t72 -30t28 -74t-28 -74t-72 -30z" />
    <glyph glyph-name="ldot" unicode="&#x140;" horiz-adv-x="488" 
d="M212 -12q-44 0 -73.5 13.5t-47.5 38.5t-25.5 59.5t-7.5 76.5v520h172v-526q0 -26 9.5 -35t18.5 -9h8.5t9.5 2l20 -126q-14 -6 -34.5 -10t-49.5 -4zM388 226q-44 0 -72 30t-28 74t28 74t72 30t72 -30t28 -74t-28 -74t-72 -30z" />
    <glyph glyph-name="Lslash" unicode="&#x141;" horiz-adv-x="538" 
d="M28 166l-58 102l110 63v319h172v-240l150 84l58 -102l-208 -115v-133h246v-144h-418v198z" />
    <glyph glyph-name="lslash" unicode="&#x142;" horiz-adv-x="318" 
d="M224 -12q-44 0 -73.5 13.5t-47.5 38.5t-25.5 59.5t-7.5 76.5v79l-40 -23l-58 106l98 54v304h172v-222l46 26l58 -106l-104 -56v-168q0 -26 9.5 -35t18.5 -9h8.5t9.5 2l20 -126q-14 -6 -34.5 -10t-49.5 -4z" />
    <glyph glyph-name="Nacute" unicode="&#x143;" horiz-adv-x="672" 
d="M72 0v650h176l144 -290l62 -146h4q-3 26 -7 57t-7 63.5t-5.5 65t-2.5 62.5v188h164v-650h-176l-144 291l-62 145h-4q6 -56 14 -122t8 -126v-188h-164zM328 674l-76 86l182 144l90 -110z" />
    <glyph glyph-name="nacute" unicode="&#x144;" horiz-adv-x="582" 
d="M58 0v500h140l12 -60h4q30 29 68.5 50.5t89.5 21.5q82 0 119 -55.5t37 -148.5v-308h-172v286q0 48 -12 64t-38 16q-24 0 -40 -10t-36 -28v-328h-172zM334 572l-84 84l158 188l116 -114z" />
    <glyph glyph-name="uni0145" unicode="&#x145;" horiz-adv-x="672" 
d="M72 0v650h176l144 -290l62 -146h4q-3 26 -7 57t-7 63.5t-5.5 65t-2.5 62.5v188h164v-650h-176l-144 291l-62 145h-4q6 -56 14 -122t8 -126v-188h-164zM242 -244l-12 66q57 3 78.5 11t21.5 25q0 12 -13.5 20.5t-46.5 11.5l32 60q43 -3 71.5 -10t46 -17.5t25 -25t7.5 -33.5
q0 -54 -55 -79.5t-155 -28.5z" />
    <glyph glyph-name="uni0146" unicode="&#x146;" horiz-adv-x="582" 
d="M58 0v500h140l12 -60h4q30 29 68.5 50.5t89.5 21.5q82 0 119 -55.5t37 -148.5v-308h-172v286q0 48 -12 64t-38 16q-24 0 -40 -10t-36 -28v-328h-172zM188 -244l-12 66q57 3 78.5 11t21.5 25q0 12 -13.5 20.5t-46.5 11.5l32 60q43 -3 71.5 -10t46 -17.5t25 -25t7.5 -33.5
q0 -54 -55 -79.5t-155 -28.5z" />
    <glyph glyph-name="Ncaron" unicode="&#x147;" horiz-adv-x="672" 
d="M72 0v650h176l144 -290l62 -146h4q-3 26 -7 57t-7 63.5t-5.5 65t-2.5 62.5v188h164v-650h-176l-144 291l-62 145h-4q6 -56 14 -122t8 -126v-188h-164zM242 700l-84 110l74 44l102 -80h4l102 80l74 -44l-84 -110h-188z" />
    <glyph glyph-name="ncaron" unicode="&#x148;" horiz-adv-x="582" 
d="M58 0v500h140l12 -60h4q30 29 68.5 50.5t89.5 21.5q82 0 119 -55.5t37 -148.5v-308h-172v286q0 48 -12 64t-38 16q-24 0 -40 -10t-36 -28v-328h-172zM226 578l-106 128l64 60l128 -84h4l128 84l64 -60l-106 -128h-176z" />
    <glyph glyph-name="napostrophe" unicode="&#x149;" horiz-adv-x="882" 
d="M358 0v500h140l12 -60h4q30 29 68.5 50.5t89.5 21.5q82 0 119 -55.5t37 -148.5v-308h-172v286q0 48 -12 64t-38 16q-24 0 -40 -10t-36 -28v-328h-172zM110 322l-36 74q48 21 72 51.5t24 75.5q-3 -1 -10 -1q-36 0 -61 22t-25 60q0 42 24 67t62 25q53 0 79.5 -38.5
t26.5 -107.5q0 -75 -38 -132.5t-118 -95.5z" />
    <glyph glyph-name="uni014A" unicode="&#x14a;" horiz-adv-x="678" 
d="M414 -12q-24 0 -51.5 4.5t-42.5 15.5l36 148q8 -3 17 -5.5t21 -2.5q13 0 24.5 7t20.5 26.5t14 55t5 93.5q0 99 -26 141.5t-74 42.5q-27 0 -59 -18t-55 -58v-438h-172v650h166v-66q38 41 81 59.5t92 18.5q48 0 88.5 -18t70.5 -57.5t47 -102.5t17 -154q0 -169 -52 -255.5
t-168 -86.5z" />
    <glyph glyph-name="uni014B" unicode="&#x14b;" horiz-adv-x="582" 
d="M334 -188q-35 0 -56 4t-38 10l30 126q11 -3 19 -4.5t17 -1.5q27 0 38.5 16.5t11.5 57.5v266q0 48 -12 64t-38 16q-24 0 -40 -10t-36 -28v-328h-172v500h140l12 -60h4q30 29 68.5 50.5t89.5 21.5q82 0 119 -55.5t37 -148.5v-282q0 -42 -9 -80.5t-31.5 -68.5t-60 -47.5
t-93.5 -17.5z" />
    <glyph glyph-name="Omacron" unicode="&#x14c;" horiz-adv-x="692" 
d="M346 -12q-68 0 -123.5 23t-95 66.5t-61.5 107t-22 143.5t22 142.5t61.5 105t95 64.5t123.5 22q67 0 123 -22t95.5 -65t61.5 -105t22 -142t-22 -143.5t-61.5 -107t-95.5 -66.5t-123 -23zM346 136q59 0 92.5 51.5t33.5 140.5t-33.5 137.5t-92.5 48.5t-92.5 -48.5
t-33.5 -137.5t33.5 -140.5t92.5 -51.5zM188 716v108h316v-108h-316z" />
    <glyph glyph-name="omacron" unicode="&#x14d;" horiz-adv-x="560" 
d="M280 -12q-48 0 -93 17.5t-79.5 51t-55 82.5t-20.5 111t20.5 111t55 82.5t79.5 51t93 17.5t92.5 -17.5t79 -51t55.5 -82.5t21 -111t-21 -111t-55.5 -82.5t-79 -51t-92.5 -17.5zM280 126q39 0 55.5 33.5t16.5 90.5t-16.5 90.5t-55.5 33.5t-55.5 -33.5t-16.5 -90.5
t16.5 -90.5t55.5 -33.5zM126 588v108h308v-108h-308z" />
    <glyph glyph-name="uni014E" unicode="&#x14e;" horiz-adv-x="692" 
d="M346 -12q-68 0 -123.5 23t-95 66.5t-61.5 107t-22 143.5t22 142.5t61.5 105t95 64.5t123.5 22q67 0 123 -22t95.5 -65t61.5 -105t22 -142t-22 -143.5t-61.5 -107t-95.5 -66.5t-123 -23zM346 136q59 0 92.5 51.5t33.5 140.5t-33.5 137.5t-92.5 48.5t-92.5 -48.5
t-33.5 -137.5t33.5 -140.5t92.5 -51.5zM346 694q-77 0 -119.5 34t-50.5 106l92 16q7 -29 27.5 -43.5t50.5 -14.5t50.5 14.5t27.5 43.5l92 -16q-8 -72 -50.5 -106t-119.5 -34z" />
    <glyph glyph-name="uni014F" unicode="&#x14f;" horiz-adv-x="560" 
d="M280 -12q-48 0 -93 17.5t-79.5 51t-55 82.5t-20.5 111t20.5 111t55 82.5t79.5 51t93 17.5t92.5 -17.5t79 -51t55.5 -82.5t21 -111t-21 -111t-55.5 -82.5t-79 -51t-92.5 -17.5zM280 126q39 0 55.5 33.5t16.5 90.5t-16.5 90.5t-55.5 33.5t-55.5 -33.5t-16.5 -90.5
t16.5 -90.5t55.5 -33.5zM280 572q-88 0 -130 44.5t-44 115.5l96 16q5 -30 23.5 -50t54.5 -20t54.5 20t23.5 50l96 -16q-2 -71 -44 -115.5t-130 -44.5z" />
    <glyph glyph-name="Ohungarumlaut" unicode="&#x150;" horiz-adv-x="692" 
d="M346 -12q-68 0 -123.5 23t-95 66.5t-61.5 107t-22 143.5t22 142.5t61.5 105t95 64.5t123.5 22q67 0 123 -22t95.5 -65t61.5 -105t22 -142t-22 -143.5t-61.5 -107t-95.5 -66.5t-123 -23zM346 136q59 0 92.5 51.5t33.5 140.5t-33.5 137.5t-92.5 48.5t-92.5 -48.5
t-33.5 -137.5t33.5 -140.5t92.5 -51.5zM198 730l104 164l108 -60l-128 -144zM396 730l104 164l108 -60l-128 -144z" />
    <glyph glyph-name="ohungarumlaut" unicode="&#x151;" horiz-adv-x="560" 
d="M280 -12q-48 0 -93 17.5t-79.5 51t-55 82.5t-20.5 111t20.5 111t55 82.5t79.5 51t93 17.5t92.5 -17.5t79 -51t55.5 -82.5t21 -111t-21 -111t-55.5 -82.5t-79 -51t-92.5 -17.5zM280 126q39 0 55.5 33.5t16.5 90.5t-16.5 90.5t-55.5 33.5t-55.5 -33.5t-16.5 -90.5
t16.5 -90.5t55.5 -33.5zM228 564l-90 40l88 184l114 -50zM418 564l-90 40l88 184l114 -50z" />
    <glyph glyph-name="OE" unicode="&#x152;" horiz-adv-x="880" 
d="M374 0q-68 0 -128 19t-105 59t-71 102t-26 148t26.5 147t72.5 100t108 57t133 18h432v-144h-236v-102h200v-144h-200v-116h246v-144h-452zM394 138h14v374h-14q-36 0 -68 -7t-55.5 -27t-37 -56t-13.5 -94t13.5 -95t37 -58t55.5 -29t68 -8z" />
    <glyph glyph-name="oe" unicode="&#x153;" horiz-adv-x="816" 
d="M268 -12q-49 0 -92 17.5t-75 51t-50.5 82.5t-18.5 111t19 111t52 82.5t76.5 51t92.5 17.5q51 0 88 -20.5t66 -53.5q32 36 71 55t81 19q51 0 89 -19.5t63 -53t37.5 -78.5t12.5 -95q0 -23 -2.5 -41t-4.5 -27h-275q11 -42 39.5 -59t66.5 -17q26 0 49.5 9.5t50.5 24.5
l58 -110q-41 -29 -90.5 -43.5t-91.5 -14.5q-41 0 -80.5 19t-71.5 55q-32 -36 -69.5 -55t-90.5 -19zM272 126q33 0 50.5 33.5t17.5 90.5t-17.5 90.5t-50.5 33.5t-49.5 -33.5t-16.5 -90.5t16.5 -90.5t49.5 -33.5zM498 302h136q0 33 -13.5 56.5t-48.5 23.5q-29 0 -48.5 -18
t-25.5 -62z" />
    <glyph glyph-name="Racute" unicode="&#x154;" horiz-adv-x="630" 
d="M72 0v650h246q52 0 99.5 -10t83 -34t56.5 -64.5t21 -101.5q0 -70 -28.5 -116t-76.5 -72l141 -252h-192l-112 218h-66v-218h-172zM244 354h62q104 0 104 86q0 42 -26.5 58t-77.5 16h-62v-160zM308 674l-76 86l182 144l90 -110z" />
    <glyph glyph-name="racute" unicode="&#x155;" horiz-adv-x="418" 
d="M58 0v500h140l12 -86h4q28 51 66.5 74.5t75.5 23.5q23 0 37 -2.5t25 -7.5l-28 -148q-14 3 -26.5 5.5t-29.5 2.5q-27 0 -56.5 -18.5t-47.5 -65.5v-278h-172zM278 572l-84 84l158 188l116 -114z" />
    <glyph glyph-name="uni0156" unicode="&#x156;" horiz-adv-x="630" 
d="M72 0v650h246q52 0 99.5 -10t83 -34t56.5 -64.5t21 -101.5q0 -70 -28.5 -116t-76.5 -72l141 -252h-192l-112 218h-66v-218h-172zM244 354h62q104 0 104 86q0 42 -26.5 58t-77.5 16h-62v-160zM226 -244l-12 66q57 3 78.5 11t21.5 25q0 12 -13.5 20.5t-46.5 11.5l32 60
q43 -3 71.5 -10t46 -17.5t25 -25t7.5 -33.5q0 -54 -55 -79.5t-155 -28.5z" />
    <glyph glyph-name="uni0157" unicode="&#x157;" horiz-adv-x="418" 
d="M58 0v500h140l12 -86h4q28 51 66.5 74.5t75.5 23.5q23 0 37 -2.5t25 -7.5l-28 -148q-14 3 -26.5 5.5t-29.5 2.5q-27 0 -56.5 -18.5t-47.5 -65.5v-278h-172zM36 -244l-12 66q57 3 78.5 11t21.5 25q0 12 -13.5 20.5t-46.5 11.5l32 60q43 -3 71.5 -10t46 -17.5t25 -25
t7.5 -33.5q0 -54 -55 -79.5t-155 -28.5z" />
    <glyph glyph-name="Rcaron" unicode="&#x158;" horiz-adv-x="630" 
d="M72 0v650h246q52 0 99.5 -10t83 -34t56.5 -64.5t21 -101.5q0 -70 -28.5 -116t-76.5 -72l141 -252h-192l-112 218h-66v-218h-172zM244 354h62q104 0 104 86q0 42 -26.5 58t-77.5 16h-62v-160zM222 700l-84 110l74 44l102 -80h4l102 80l74 -44l-84 -110h-188z" />
    <glyph glyph-name="rcaron" unicode="&#x159;" horiz-adv-x="418" 
d="M58 0v500h140l12 -86h4q28 51 66.5 74.5t75.5 23.5q23 0 37 -2.5t25 -7.5l-28 -148q-14 3 -26.5 5.5t-29.5 2.5q-27 0 -56.5 -18.5t-47.5 -65.5v-278h-172zM170 578l-106 128l64 60l128 -84h4l128 84l64 -60l-106 -128h-176z" />
    <glyph glyph-name="Sacute" unicode="&#x15a;" horiz-adv-x="564" 
d="M278 -12q-62 0 -127.5 22.5t-118.5 70.5l98 118q35 -28 75.5 -45.5t76.5 -17.5q39 0 56.5 12t17.5 34q0 12 -6 20t-17.5 15t-27.5 13.5t-37 14.5l-81 34q-26 10 -50 26.5t-42 39t-28.5 51.5t-10.5 64q0 42 18 78.5t50 64t76.5 43.5t97.5 16q56 0 113.5 -21t102.5 -66
l-86 -108q-33 23 -63.5 35t-66.5 12q-32 0 -50 -11t-18 -33q0 -23 25.5 -35.5t70.5 -29.5l79 -31q61 -24 94 -67t33 -111q0 -41 -17 -79t-49.5 -66.5t-79.5 -45.5t-108 -17zM288 674l-76 86l182 144l90 -110z" />
    <glyph glyph-name="sacute" unicode="&#x15b;" horiz-adv-x="452" 
d="M212 -12q-48 0 -101.5 19t-92.5 51l76 106q68 -50 122 -50q27 0 38.5 7.5t11.5 22.5q0 10 -8 17.5t-21.5 14t-30.5 12.5t-36 14q-22 9 -44.5 21.5t-40.5 30.5t-29.5 41.5t-11.5 54.5q0 37 14.5 67t40.5 51t62.5 32.5t80.5 11.5q62 0 106.5 -20.5t77.5 -45.5l-76 -102
q-27 20 -53 31t-49 11q-44 0 -44 -28q0 -10 7.5 -17t20.5 -13t30 -11.5t36 -12.5q22 -8 45 -20t41.5 -29.5t30 -42t11.5 -58.5q0 -35 -14 -65.5t-41 -53t-67 -35t-92 -12.5zM262 572l-84 84l158 188l116 -114z" />
    <glyph glyph-name="Scircumflex" unicode="&#x15c;" horiz-adv-x="564" 
d="M278 -12q-62 0 -127.5 22.5t-118.5 70.5l98 118q35 -28 75.5 -45.5t76.5 -17.5q39 0 56.5 12t17.5 34q0 12 -6 20t-17.5 15t-27.5 13.5t-37 14.5l-81 34q-26 10 -50 26.5t-42 39t-28.5 51.5t-10.5 64q0 42 18 78.5t50 64t76.5 43.5t97.5 16q56 0 113.5 -21t102.5 -66
l-86 -108q-33 23 -63.5 35t-66.5 12q-32 0 -50 -11t-18 -33q0 -23 25.5 -35.5t70.5 -29.5l79 -31q61 -24 94 -67t33 -111q0 -41 -17 -79t-49.5 -66.5t-79.5 -45.5t-108 -17zM118 724l84 110h188l84 -110l-74 -44l-102 80h-4l-102 -80z" />
    <glyph glyph-name="scircumflex" unicode="&#x15d;" horiz-adv-x="452" 
d="M212 -12q-48 0 -101.5 19t-92.5 51l76 106q68 -50 122 -50q27 0 38.5 7.5t11.5 22.5q0 10 -8 17.5t-21.5 14t-30.5 12.5t-36 14q-22 9 -44.5 21.5t-40.5 30.5t-29.5 41.5t-11.5 54.5q0 37 14.5 67t40.5 51t62.5 32.5t80.5 11.5q62 0 106.5 -20.5t77.5 -45.5l-76 -102
q-27 20 -53 31t-49 11q-44 0 -44 -28q0 -10 7.5 -17t20.5 -13t30 -11.5t36 -12.5q22 -8 45 -20t41.5 -29.5t30 -42t11.5 -58.5q0 -35 -14 -65.5t-41 -53t-67 -35t-92 -12.5zM48 618l106 128h176l106 -128l-64 -60l-128 84h-4l-128 -84z" />
    <glyph glyph-name="uni015E" unicode="&#x15e;" horiz-adv-x="564" 
d="M278 -12q-62 0 -127.5 22.5t-118.5 70.5l98 118q35 -28 75.5 -45.5t76.5 -17.5q39 0 56.5 12t17.5 34q0 12 -6 20t-17.5 15t-27.5 13.5t-37 14.5l-81 34q-26 10 -50 26.5t-42 39t-28.5 51.5t-10.5 64q0 42 18 78.5t50 64t76.5 43.5t97.5 16q56 0 113.5 -21t102.5 -66
l-86 -108q-33 23 -63.5 35t-66.5 12q-32 0 -50 -11t-18 -33q0 -23 25.5 -35.5t70.5 -29.5l79 -31q61 -24 94 -67t33 -111q0 -41 -17 -79t-49.5 -66.5t-79.5 -45.5t-108 -17zM174 -244l-12 66q57 3 78.5 12t21.5 30q0 13 -15 23.5t-61 16.5l50 100h98l-28 -64
q39 -9 58.5 -26.5t19.5 -49.5q0 -54 -55 -79.5t-155 -28.5z" />
    <glyph glyph-name="uni015F" unicode="&#x15f;" horiz-adv-x="452" 
d="M212 -12q-48 0 -101.5 19t-92.5 51l76 106q68 -50 122 -50q27 0 38.5 7.5t11.5 22.5q0 10 -8 17.5t-21.5 14t-30.5 12.5t-36 14q-22 9 -44.5 21.5t-40.5 30.5t-29.5 41.5t-11.5 54.5q0 37 14.5 67t40.5 51t62.5 32.5t80.5 11.5q62 0 106.5 -20.5t77.5 -45.5l-76 -102
q-27 20 -53 31t-49 11q-44 0 -44 -28q0 -10 7.5 -17t20.5 -13t30 -11.5t36 -12.5q22 -8 45 -20t41.5 -29.5t30 -42t11.5 -58.5q0 -35 -14 -65.5t-41 -53t-67 -35t-92 -12.5zM134 -244l-12 66q57 3 78.5 12t21.5 30q0 13 -15 23.5t-61 16.5l50 100h98l-28 -64
q39 -9 58.5 -26.5t19.5 -49.5q0 -54 -55 -79.5t-155 -28.5z" />
    <glyph glyph-name="Scaron" unicode="&#x160;" horiz-adv-x="564" 
d="M278 -12q-62 0 -127.5 22.5t-118.5 70.5l98 118q35 -28 75.5 -45.5t76.5 -17.5q39 0 56.5 12t17.5 34q0 12 -6 20t-17.5 15t-27.5 13.5t-37 14.5l-81 34q-26 10 -50 26.5t-42 39t-28.5 51.5t-10.5 64q0 42 18 78.5t50 64t76.5 43.5t97.5 16q56 0 113.5 -21t102.5 -66
l-86 -108q-33 23 -63.5 35t-66.5 12q-32 0 -50 -11t-18 -33q0 -23 25.5 -35.5t70.5 -29.5l79 -31q61 -24 94 -67t33 -111q0 -41 -17 -79t-49.5 -66.5t-79.5 -45.5t-108 -17zM202 700l-84 110l74 44l102 -80h4l102 80l74 -44l-84 -110h-188z" />
    <glyph glyph-name="scaron" unicode="&#x161;" horiz-adv-x="452" 
d="M212 -12q-48 0 -101.5 19t-92.5 51l76 106q68 -50 122 -50q27 0 38.5 7.5t11.5 22.5q0 10 -8 17.5t-21.5 14t-30.5 12.5t-36 14q-22 9 -44.5 21.5t-40.5 30.5t-29.5 41.5t-11.5 54.5q0 37 14.5 67t40.5 51t62.5 32.5t80.5 11.5q62 0 106.5 -20.5t77.5 -45.5l-76 -102
q-27 20 -53 31t-49 11q-44 0 -44 -28q0 -10 7.5 -17t20.5 -13t30 -11.5t36 -12.5q22 -8 45 -20t41.5 -29.5t30 -42t11.5 -58.5q0 -35 -14 -65.5t-41 -53t-67 -35t-92 -12.5zM154 578l-106 128l64 60l128 -84h4l128 84l64 -60l-106 -128h-176z" />
    <glyph glyph-name="uni0162" unicode="&#x162;" horiz-adv-x="564" 
d="M196 0v506h-172v144h516v-144h-172v-506h-172zM178 -244l-12 66q57 3 78.5 12t21.5 30q0 13 -15 23.5t-61 16.5l50 100h98l-28 -64q39 -9 58.5 -26.5t19.5 -49.5q0 -54 -55 -79.5t-155 -28.5z" />
    <glyph glyph-name="uni0163" unicode="&#x163;" horiz-adv-x="400" 
d="M264 -12q-49 0 -83.5 14.5t-57 41.5t-33 64.5t-10.5 83.5v174h-66v128l76 6l20 130h142v-130h114v-134h-114v-171q0 -42 18 -57.5t42 -15.5q12 0 23.5 2.5t20.5 5.5l26 -124q-20 -6 -48 -12t-70 -6zM142 -244l-12 66q57 3 78.5 12t21.5 30q0 13 -15 23.5t-61 16.5l50 100
h98l-28 -64q39 -9 58.5 -26.5t19.5 -49.5q0 -54 -55 -79.5t-155 -28.5z" />
    <glyph glyph-name="Tcaron" unicode="&#x164;" horiz-adv-x="564" 
d="M196 0v506h-172v144h516v-144h-172v-506h-172zM188 700l-84 110l74 44l102 -80h4l102 80l74 -44l-84 -110h-188z" />
    <glyph glyph-name="tcaron" unicode="&#x165;" horiz-adv-x="400" 
d="M264 -12q-49 0 -83.5 14.5t-57 41.5t-33 64.5t-10.5 83.5v174h-66v128l76 6l20 130h142v-130h114v-134h-114v-171q0 -42 18 -57.5t42 -15.5q12 0 23.5 2.5t20.5 5.5l26 -124q-20 -6 -48 -12t-70 -6zM288 548l-6 226h108l-2 -74l-28 -152h-72z" />
    <glyph glyph-name="uni0166" unicode="&#x166;" horiz-adv-x="564" 
d="M196 0v274h-116v74l96 6h20v152h-172v144h516v-144h-172v-152h116v-80h-116v-274h-172z" />
    <glyph glyph-name="uni0167" unicode="&#x167;" horiz-adv-x="400" 
d="M14 220v74l66 5v67h-66v128l76 6l20 130h142v-130h114v-134h-114v-66h114v-80h-114v-25q0 -42 18 -57.5t42 -15.5q12 0 23.5 2.5t20.5 5.5l26 -124q-20 -6 -48 -12t-70 -6q-49 0 -83.5 14.5t-57 41.5t-33 64.5t-10.5 83.5v28h-66z" />
    <glyph glyph-name="Utilde" unicode="&#x168;" horiz-adv-x="672" 
d="M338 -12q-137 0 -203.5 79.5t-66.5 246.5v336h172v-356q0 -87 23.5 -122.5t74.5 -35.5t75.5 35.5t24.5 122.5v356h166v-336q0 -167 -65 -246.5t-201 -79.5zM406 686q-26 0 -46.5 8t-36.5 18t-28.5 18t-22.5 8q-12 0 -20.5 -8t-11.5 -34l-110 8q2 41 13.5 70t29.5 47
t42 26.5t51 8.5q26 0 46.5 -8t36.5 -18t28 -18t23 -8q12 0 20.5 8t11.5 34l110 -8q-2 -41 -13.5 -70t-29.5 -47t-42 -26.5t-51 -8.5z" />
    <glyph glyph-name="utilde" unicode="&#x169;" horiz-adv-x="578" 
d="M210 -12q-41 0 -70.5 14.5t-48.5 41t-28 64t-9 84.5v308h172v-286q0 -48 12 -64t38 -16q24 0 39.5 10t32.5 34v322h172v-500h-140l-12 66h-4q-30 -36 -66.5 -57t-87.5 -21zM354 572q-23 0 -41.5 8.5t-33.5 19t-27 19.5t-22 9q-12 0 -19.5 -9.5t-10.5 -36.5l-106 6
q2 85 37 121.5t95 36.5q22 0 41 -9t34 -19.5t27 -19t22 -8.5q12 0 19.5 9.5t10.5 36.5l106 -6q-2 -85 -37 -121.5t-95 -36.5z" />
    <glyph glyph-name="Umacron" unicode="&#x16a;" horiz-adv-x="672" 
d="M338 -12q-137 0 -203.5 79.5t-66.5 246.5v336h172v-356q0 -87 23.5 -122.5t74.5 -35.5t75.5 35.5t24.5 122.5v356h166v-336q0 -167 -65 -246.5t-201 -79.5zM178 716v108h316v-108h-316z" />
    <glyph glyph-name="umacron" unicode="&#x16b;" horiz-adv-x="578" 
d="M210 -12q-41 0 -70.5 14.5t-48.5 41t-28 64t-9 84.5v308h172v-286q0 -48 12 -64t38 -16q24 0 39.5 10t32.5 34v322h172v-500h-140l-12 66h-4q-30 -36 -66.5 -57t-87.5 -21zM136 588v108h308v-108h-308z" />
    <glyph glyph-name="Ubreve" unicode="&#x16c;" horiz-adv-x="672" 
d="M338 -12q-137 0 -203.5 79.5t-66.5 246.5v336h172v-356q0 -87 23.5 -122.5t74.5 -35.5t75.5 35.5t24.5 122.5v356h166v-336q0 -167 -65 -246.5t-201 -79.5zM336 694q-77 0 -119.5 34t-50.5 106l92 16q7 -29 27.5 -43.5t50.5 -14.5t50.5 14.5t27.5 43.5l92 -16
q-8 -72 -50.5 -106t-119.5 -34z" />
    <glyph glyph-name="ubreve" unicode="&#x16d;" horiz-adv-x="578" 
d="M210 -12q-41 0 -70.5 14.5t-48.5 41t-28 64t-9 84.5v308h172v-286q0 -48 12 -64t38 -16q24 0 39.5 10t32.5 34v322h172v-500h-140l-12 66h-4q-30 -36 -66.5 -57t-87.5 -21zM290 572q-88 0 -130 44.5t-44 115.5l96 16q5 -30 23.5 -50t54.5 -20t54.5 20t23.5 50l96 -16
q-2 -71 -44 -115.5t-130 -44.5z" />
    <glyph glyph-name="Uring" unicode="&#x16e;" horiz-adv-x="672" 
d="M338 -12q-137 0 -203.5 79.5t-66.5 246.5v336h172v-356q0 -87 23.5 -122.5t74.5 -35.5t75.5 35.5t24.5 122.5v356h166v-336q0 -167 -65 -246.5t-201 -79.5zM336 696q-54 0 -87 27.5t-33 74.5t33 74.5t87 27.5t87 -27.5t33 -74.5t-33 -74.5t-87 -27.5zM336 758q16 0 27 11
t11 29t-11 29t-27 11t-27 -11t-11 -29t11 -29t27 -11z" />
    <glyph glyph-name="uring" unicode="&#x16f;" horiz-adv-x="578" 
d="M210 -12q-41 0 -70.5 14.5t-48.5 41t-28 64t-9 84.5v308h172v-286q0 -48 12 -64t38 -16q24 0 39.5 10t32.5 34v322h172v-500h-140l-12 66h-4q-30 -36 -66.5 -57t-87.5 -21zM290 568q-71 0 -105.5 31t-34.5 75t34.5 75t105.5 31t105.5 -31t34.5 -75t-34.5 -75t-105.5 -31z
M290 630q16 0 27 12t11 32t-11 32t-27 12t-27 -12t-11 -32t11 -32t27 -12z" />
    <glyph glyph-name="Uhungarumlaut" unicode="&#x170;" horiz-adv-x="672" 
d="M338 -12q-137 0 -203.5 79.5t-66.5 246.5v336h172v-356q0 -87 23.5 -122.5t74.5 -35.5t75.5 35.5t24.5 122.5v356h166v-336q0 -167 -65 -246.5t-201 -79.5zM188 730l104 164l108 -60l-128 -144zM386 730l104 164l108 -60l-128 -144z" />
    <glyph glyph-name="uhungarumlaut" unicode="&#x171;" horiz-adv-x="578" 
d="M210 -12q-41 0 -70.5 14.5t-48.5 41t-28 64t-9 84.5v308h172v-286q0 -48 12 -64t38 -16q24 0 39.5 10t32.5 34v322h172v-500h-140l-12 66h-4q-30 -36 -66.5 -57t-87.5 -21zM238 564l-90 40l88 184l114 -50zM428 564l-90 40l88 184l114 -50z" />
    <glyph glyph-name="Uogonek" unicode="&#x172;" horiz-adv-x="672" 
d="M360 -228q-51 0 -86.5 25.5t-35.5 72.5q0 24 8 44t18.5 35.5t21.5 25.5t16 15q-119 9 -176.5 89t-57.5 235v336h172v-356q0 -87 23.5 -122.5t74.5 -35.5t75.5 35.5t24.5 122.5v356h166v-336q0 -71 -9.5 -121t-30 -87t-53.5 -63t-81 -47q-37 -17 -52.5 -38.5t-15.5 -41.5
q0 -18 12.5 -26t27.5 -8q9 0 18 4.5t16 9.5l38 -86q-21 -17 -53 -27.5t-61 -10.5z" />
    <glyph glyph-name="uogonek" unicode="&#x173;" horiz-adv-x="578" 
d="M430 -212q-47 0 -79.5 23.5t-32.5 70.5q0 22 7 41t17.5 33.5t21 24.5t18.5 15l-14 70h-4q-30 -36 -66.5 -57t-87.5 -21q-41 0 -70.5 14.5t-48.5 41t-28 64t-9 84.5v308h172v-286q0 -48 12 -64t38 -16q24 0 39.5 10t32.5 34v322h172v-500q-51 -12 -69.5 -34.5t-18.5 -43.5
q0 -17 12.5 -25.5t27.5 -8.5q9 0 18.5 3.5t15.5 8.5l34 -76q-21 -17 -52.5 -26.5t-57.5 -9.5z" />
    <glyph glyph-name="Wcircumflex" unicode="&#x174;" horiz-adv-x="824" 
d="M124 0l-114 650h176l36 -284q5 -51 11 -102t11 -102h4l18 102l18 102l62 284h144l62 -284q9 -49 18 -100.5t18 -103.5h4q5 52 11 103t11 101l36 284h164l-108 -650h-218l-50 258q-8 38 -13.5 77t-10.5 75h-4q-5 -36 -10.5 -75t-13.5 -77l-48 -258h-214zM234 724l84 110
h188l84 -110l-74 -44l-102 80h-4l-102 -80z" />
    <glyph glyph-name="wcircumflex" unicode="&#x175;" horiz-adv-x="798" 
d="M144 0l-120 500h170l38 -210q6 -38 10 -75.5t10 -76.5h4q6 39 12.5 77.5t15.5 74.5l46 210h146l48 -210q9 -38 15.5 -75.5t14.5 -76.5h4q6 39 10 76.5t10 75.5l38 210h158l-114 -500h-200l-36 174l-12 70t-12 77h-4l-11 -77t-11 -70l-34 -174h-196zM206 618l106 128h176
l106 -128l-64 -60l-128 84h-4l-128 -84z" />
    <glyph glyph-name="Ycircumflex" unicode="&#x176;" horiz-adv-x="544" 
d="M186 0v224l-196 426h184l48 -136q12 -37 24 -72t25 -73h4q13 38 25.5 73t25.5 72l48 136h180l-196 -426v-224h-172zM94 724l84 110h188l84 -110l-74 -44l-102 80h-4l-102 -80z" />
    <glyph glyph-name="ycircumflex" unicode="&#x177;" horiz-adv-x="542" 
d="M132 -188q-26 0 -42.5 2.5t-33.5 7.5l30 130q7 -2 15.5 -4t16.5 -2q35 0 52.5 13.5t25.5 36.5l6 22l-190 482h172l60 -192q11 -35 19 -69.5t17 -72.5h4q8 36 15.5 71t16.5 71l50 192h164l-168 -492q-20 -51 -40.5 -88t-47.5 -61t-61.5 -35.5t-80.5 -11.5zM82 618l106 128
h176l106 -128l-64 -60l-128 84h-4l-128 -84z" />
    <glyph glyph-name="Ydieresis" unicode="&#x178;" horiz-adv-x="544" 
d="M186 0v224l-196 426h184l48 -136q12 -37 24 -72t25 -73h4q13 38 25.5 73t25.5 72l48 136h180l-196 -426v-224h-172zM158 694q-35 0 -56.5 22.5t-21.5 55.5t21.5 55.5t56.5 22.5t56.5 -22.5t21.5 -55.5t-21.5 -55.5t-56.5 -22.5zM386 694q-35 0 -56.5 22.5t-21.5 55.5
t21.5 55.5t56.5 22.5t56.5 -22.5t21.5 -55.5t-21.5 -55.5t-56.5 -22.5z" />
    <glyph glyph-name="Zacute" unicode="&#x179;" horiz-adv-x="542" 
d="M32 0v104l266 402h-240v144h452v-104l-266 -402h268v-144h-480zM276 674l-76 86l182 144l90 -110z" />
    <glyph glyph-name="zacute" unicode="&#x17a;" horiz-adv-x="474" 
d="M40 0v92l190 274h-168v134h382v-92l-190 -274h196v-134h-410zM272 572l-84 84l158 188l116 -114z" />
    <glyph glyph-name="Zdotaccent" unicode="&#x17b;" horiz-adv-x="542" 
d="M32 0v104l266 402h-240v144h452v-104l-266 -402h268v-144h-480zM284 696q-42 0 -69 24t-27 62t27 62t69 24t69 -24t27 -62t-27 -62t-69 -24z" />
    <glyph glyph-name="zdotaccent" unicode="&#x17c;" horiz-adv-x="474" 
d="M40 0v92l190 274h-168v134h382v-92l-190 -274h196v-134h-410zM252 562q-41 0 -66.5 24t-25.5 62t25.5 62t66.5 24t66.5 -24t25.5 -62t-25.5 -62t-66.5 -24z" />
    <glyph glyph-name="Zcaron" unicode="&#x17d;" horiz-adv-x="542" 
d="M32 0v104l266 402h-240v144h452v-104l-266 -402h268v-144h-480zM190 700l-84 110l74 44l102 -80h4l102 80l74 -44l-84 -110h-188z" />
    <glyph glyph-name="zcaron" unicode="&#x17e;" horiz-adv-x="474" 
d="M40 0v92l190 274h-168v134h382v-92l-190 -274h196v-134h-410zM164 578l-106 128l64 60l128 -84h4l128 84l64 -60l-106 -128h-176z" />
    <glyph glyph-name="uni0180" unicode="&#x180;" horiz-adv-x="582" 
d="M336 -12q-33 0 -65 16.5t-61 49.5h-4l-14 -54h-134v550h-66v74l66 5v67h172v-66h164v-80h-164v-68l-4 -72q26 24 58 37t65 13q44 0 80 -16.5t61.5 -46t39.5 -71t14 -91.5q0 -57 -17.5 -103t-46.5 -78t-66.5 -49t-77.5 -17zM294 128q30 0 52 25t22 79q0 88 -70 88
q-20 0 -35.5 -8t-32.5 -28v-132q15 -14 31 -19t33 -5z" />
    <glyph glyph-name="uni018F" unicode="&#x18f;" horiz-adv-x="682" 
d="M340 -12q-67 0 -121 21t-92 63t-58.5 104.5t-20.5 145.5q0 14 1 28.5t3 29.5h413q-9 75 -44.5 108.5t-98.5 33.5q-45 0 -77.5 -18.5t-58.5 -41.5l-78 118q41 36 98.5 59t137.5 23q64 0 118 -21.5t93 -63.5t61 -105t22 -146t-21.5 -146.5t-60.5 -106t-94 -64t-122 -21.5z
M340 128q47 0 79.5 29.5t43.5 98.5h-239q6 -72 36 -100t80 -28z" />
    <glyph glyph-name="uni0192" unicode="&#x192;" horiz-adv-x="540" 
d="M126 -96q-32 1 -56 5t-35 10l21 127q11 -4 21 -5.5t21 -2.5q16 1 27 5.5t19 19t13.5 41t10.5 70.5l13 118h-69v118l76 6h8l4 38q6 57 21 96.5t41 64.5t64 36t91 11q9 0 21 -1.5t24.5 -4t24 -5.5t19.5 -7l-31 -128q-8 3 -18.5 6.5t-24.5 3.5q-59 0 -66 -58l-6 -52h94v-124
h-109l-21 -170q-5 -44 -16.5 -83.5t-33.5 -69.5t-58 -47.5t-90 -17.5z" />
    <glyph glyph-name="uni0193" unicode="&#x193;" horiz-adv-x="646" 
d="M372 -12q-68 0 -128 20.5t-104.5 62t-70 104t-25.5 145.5q0 82 26 145.5t70.5 107t103.5 66.5t124 23q10 0 19.5 -0.5t19.5 -1.5q-1 3 -1 10q0 31 10.5 59t30 49t48.5 33.5t67 12.5q35 0 56 -4.5t38 -9.5l-30 -126q-8 3 -13 4.5t-13 1.5q-21 0 -35.5 -11t-14.5 -35
q0 -18 9.5 -32t20.5 -26l-90 -110q-24 17 -50.5 27.5t-65.5 10.5q-33 0 -61 -13t-49 -37t-32.5 -59t-11.5 -79q0 -92 41 -141t129 -49q14 0 27.5 3t22.5 9v90h-96v140h248v-310q-35 -33 -93 -56.5t-127 -23.5z" />
    <glyph glyph-name="Ohorn" unicode="&#x1a0;" horiz-adv-x="692" 
d="M346 -12q-68 0 -123.5 23t-95 66.5t-61.5 107t-22 143.5t22 142.5t61.5 105t95 64.5t123.5 22q78 0 143 -31q24 9 37.5 23t13.5 46q0 21 -5.5 39t-10.5 29l126 50q12 -17 22 -45t10 -61q0 -56 -29 -87.5t-90 -48.5q41 -43 63 -105t22 -143q0 -80 -22 -143.5t-61.5 -107
t-95.5 -66.5t-123 -23zM346 136q59 0 92.5 51.5t33.5 140.5t-33.5 137.5t-92.5 48.5t-92.5 -48.5t-33.5 -137.5t33.5 -140.5t92.5 -51.5z" />
    <glyph glyph-name="ohorn" unicode="&#x1a1;" horiz-adv-x="560" 
d="M280 -12q-48 0 -93 17.5t-79.5 51t-55 82.5t-20.5 111t20.5 111t55 82.5t79.5 51t93 17.5q52 0 98 -20q26 8 43 27t17 61q0 18 -5 33t-11 25l126 54q12 -15 22 -42.5t10 -57.5q0 -61 -34.5 -99t-88.5 -55q32 -33 51.5 -80.5t19.5 -107.5q0 -62 -21 -111t-55.5 -82.5
t-79 -51t-92.5 -17.5zM280 126q39 0 55.5 33.5t16.5 90.5t-16.5 90.5t-55.5 33.5t-55.5 -33.5t-16.5 -90.5t16.5 -90.5t55.5 -33.5z" />
    <glyph glyph-name="Uhorn" unicode="&#x1af;" horiz-adv-x="692" 
d="M338 -12q-137 0 -203.5 79.5t-66.5 246.5v336h172v-356q0 -87 23.5 -122.5t74.5 -35.5t75.5 35.5t24.5 122.5v356h84q13 0 27 2t26 9.5t19.5 21t7.5 37.5q0 21 -5.5 39t-10.5 29l126 50q12 -17 22 -45t10 -61q0 -63 -36 -97t-104 -46v-275q0 -167 -65 -246.5t-201 -79.5z
" />
    <glyph glyph-name="uhorn" unicode="&#x1b0;" horiz-adv-x="578" 
d="M210 -12q-41 0 -70.5 14.5t-48.5 41t-28 64t-9 84.5v308h172v-286q0 -48 12 -64t38 -16q24 0 39.5 10t32.5 34v322h56q13 0 27 2.5t26 12t19.5 27.5t7.5 48q0 18 -5.5 33t-10.5 25l126 54q12 -15 22 -42.5t10 -57.5q0 -61 -30.5 -99.5t-75.5 -53.5v-449h-140l-12 66h-4
q-30 -36 -66.5 -57t-87.5 -21z" />
    <glyph glyph-name="uni01C2" unicode="&#x1c2;" horiz-adv-x="346" 
d="M6 330v74l76 6h38v340h110v-340h108v-80h-108v-126h108v-80h-108v-374h-110v374h-114v74l76 6h38v126h-114z" />
    <glyph glyph-name="uni01CD" unicode="&#x1cd;" horiz-adv-x="584" 
d="M240 316l-11 -45h120l-11 45q-12 47 -24 102t-24 104h-4q-11 -50 -22.5 -104.5t-23.5 -101.5zM-10 0l198 650h208l198 -650h-182l-32 138h-182l-32 -138h-176zM194 700l-84 110l74 44l102 -80h4l102 80l74 -44l-84 -110h-188z" />
    <glyph glyph-name="uni01CE" unicode="&#x1ce;" horiz-adv-x="536" 
d="M188 -12q-35 0 -63 12.5t-47.5 33.5t-29.5 49t-10 59q0 78 64 122.5t208 59.5q-6 52 -70 52q-27 0 -57 -10.5t-69 -31.5l-60 112q53 32 107 49t113 17q97 0 152.5 -55.5t55.5 -178.5v-278h-140l-12 48h-4q-30 -27 -63.5 -43.5t-74.5 -16.5zM248 120q21 0 34.5 9.5
t27.5 24.5v68q-62 -9 -85 -27t-23 -39q0 -36 46 -36zM193 578l-106 128l64 60l128 -84h4l128 84l64 -60l-106 -128h-176z" />
    <glyph glyph-name="uni01CF" unicode="&#x1cf;" horiz-adv-x="316" 
d="M72 0v650h172v-650h-172zM64 700l-84 110l74 44l102 -80h4l102 80l74 -44l-84 -110h-188z" />
    <glyph glyph-name="uni01D0" unicode="&#x1d0;" horiz-adv-x="288" 
d="M58 0v500h172v-500h-172zM56 578l-106 128l64 60l128 -84h4l128 84l64 -60l-106 -128h-176z" />
    <glyph glyph-name="uni01D1" unicode="&#x1d1;" horiz-adv-x="692" 
d="M346 -12q-68 0 -123.5 23t-95 66.5t-61.5 107t-22 143.5t22 142.5t61.5 105t95 64.5t123.5 22q67 0 123 -22t95.5 -65t61.5 -105t22 -142t-22 -143.5t-61.5 -107t-95.5 -66.5t-123 -23zM346 136q59 0 92.5 51.5t33.5 140.5t-33.5 137.5t-92.5 48.5t-92.5 -48.5
t-33.5 -137.5t33.5 -140.5t92.5 -51.5zM252 700l-84 110l74 44l102 -80h4l102 80l74 -44l-84 -110h-188z" />
    <glyph glyph-name="uni01D2" unicode="&#x1d2;" horiz-adv-x="560" 
d="M280 -12q-48 0 -93 17.5t-79.5 51t-55 82.5t-20.5 111t20.5 111t55 82.5t79.5 51t93 17.5t92.5 -17.5t79 -51t55.5 -82.5t21 -111t-21 -111t-55.5 -82.5t-79 -51t-92.5 -17.5zM280 126q39 0 55.5 33.5t16.5 90.5t-16.5 90.5t-55.5 33.5t-55.5 -33.5t-16.5 -90.5
t16.5 -90.5t55.5 -33.5zM192 578l-106 128l64 60l128 -84h4l128 84l64 -60l-106 -128h-176z" />
    <glyph glyph-name="uni01D3" unicode="&#x1d3;" horiz-adv-x="672" 
d="M338 -12q-137 0 -203.5 79.5t-66.5 246.5v336h172v-356q0 -87 23.5 -122.5t74.5 -35.5t75.5 35.5t24.5 122.5v356h166v-336q0 -167 -65 -246.5t-201 -79.5zM242 700l-84 110l74 44l102 -80h4l102 80l74 -44l-84 -110h-188z" />
    <glyph glyph-name="uni01D4" unicode="&#x1d4;" horiz-adv-x="578" 
d="M210 -12q-41 0 -70.5 14.5t-48.5 41t-28 64t-9 84.5v308h172v-286q0 -48 12 -64t38 -16q24 0 39.5 10t32.5 34v322h172v-500h-140l-12 66h-4q-30 -36 -66.5 -57t-87.5 -21zM202 578l-106 128l64 60l128 -84h4l128 84l64 -60l-106 -128h-176z" />
    <glyph glyph-name="uni01D5" unicode="&#x1d5;" horiz-adv-x="672" 
d="M338 -12q-137 0 -203.5 79.5t-66.5 246.5v336h172v-356q0 -87 23.5 -122.5t74.5 -35.5t75.5 35.5t24.5 122.5v356h166v-336q0 -167 -65 -246.5t-201 -79.5zM222 694q-30 0 -49 19.5t-19 48.5t19 48.5t49 19.5t49 -19.5t19 -48.5t-19 -48.5t-49 -19.5zM178 876v78h316v-78
h-316zM450 694q-30 0 -49 19.5t-19 48.5t19 48.5t49 19.5t49 -19.5t19 -48.5t-19 -48.5t-49 -19.5z" />
    <glyph glyph-name="uni01D6" unicode="&#x1d6;" horiz-adv-x="578" 
d="M210 -12q-41 0 -70.5 14.5t-48.5 41t-28 64t-9 84.5v308h172v-286q0 -48 12 -64t38 -16q24 0 39.5 10t32.5 34v322h172v-500h-140l-12 66h-4q-30 -36 -66.5 -57t-87.5 -21zM176 564q-30 0 -49 19.5t-19 48.5t19 48.5t49 19.5t49 -19.5t19 -48.5t-19 -48.5t-49 -19.5z
M136 758v78h308v-78h-308zM404 564q-30 0 -49 19.5t-19 48.5t19 48.5t49 19.5t49 -19.5t19 -48.5t-19 -48.5t-49 -19.5z" />
    <glyph glyph-name="uni01D7" unicode="&#x1d7;" horiz-adv-x="672" 
d="M338 -12q-137 0 -203.5 79.5t-66.5 246.5v336h172v-356q0 -87 23.5 -122.5t74.5 -35.5t75.5 35.5t24.5 122.5v356h166v-336q0 -167 -65 -246.5t-201 -79.5zM222 694q-30 0 -49 19.5t-19 48.5t19 48.5t49 19.5t49 -19.5t19 -48.5t-19 -48.5t-49 -19.5zM274 870l96 154
l106 -64l-128 -134zM450 694q-30 0 -49 19.5t-19 48.5t19 48.5t49 19.5t49 -19.5t19 -48.5t-19 -48.5t-49 -19.5z" />
    <glyph glyph-name="uni01D8" unicode="&#x1d8;" horiz-adv-x="578" 
d="M210 -12q-41 0 -70.5 14.5t-48.5 41t-28 64t-9 84.5v308h172v-286q0 -48 12 -64t38 -16q24 0 39.5 10t32.5 34v322h172v-500h-140l-12 66h-4q-30 -36 -66.5 -57t-87.5 -21zM302 716l-64 40l76 140l90 -58zM176 564q-30 0 -49 19.5t-19 48.5t19 48.5t49 19.5t49 -19.5
t19 -48.5t-19 -48.5t-49 -19.5zM404 564q-30 0 -49 19.5t-19 48.5t19 48.5t49 19.5t49 -19.5t19 -48.5t-19 -48.5t-49 -19.5z" />
    <glyph glyph-name="uni01D9" unicode="&#x1d9;" horiz-adv-x="672" 
d="M338 -12q-137 0 -203.5 79.5t-66.5 246.5v336h172v-356q0 -87 23.5 -122.5t74.5 -35.5t75.5 35.5t24.5 122.5v356h166v-336q0 -167 -65 -246.5t-201 -79.5zM262 860l-88 104l68 44l92 -72h4l92 72l68 -44l-88 -104h-148zM222 694q-30 0 -49 19.5t-19 48.5t19 48.5
t49 19.5t49 -19.5t19 -48.5t-19 -48.5t-49 -19.5zM450 694q-30 0 -49 19.5t-19 48.5t19 48.5t49 19.5t49 -19.5t19 -48.5t-19 -48.5t-49 -19.5z" />
    <glyph glyph-name="uni01DA" unicode="&#x1da;" horiz-adv-x="578" 
d="M210 -12q-41 0 -70.5 14.5t-48.5 41t-28 64t-9 84.5v308h172v-286q0 -48 12 -64t38 -16q24 0 39.5 10t32.5 34v322h172v-500h-140l-12 66h-4q-30 -36 -66.5 -57t-87.5 -21zM186 886l102 -62h4l102 62l54 -50l-90 -92h-136l-90 92zM176 564q-30 0 -49 19.5t-19 48.5
t19 48.5t49 19.5t49 -19.5t19 -48.5t-19 -48.5t-49 -19.5zM404 564q-30 0 -49 19.5t-19 48.5t19 48.5t49 19.5t49 -19.5t19 -48.5t-19 -48.5t-49 -19.5z" />
    <glyph glyph-name="uni01DB" unicode="&#x1db;" horiz-adv-x="672" 
d="M338 -12q-137 0 -203.5 79.5t-66.5 246.5v336h172v-356q0 -87 23.5 -122.5t74.5 -35.5t75.5 35.5t24.5 122.5v356h166v-336q0 -167 -65 -246.5t-201 -79.5zM398 870l-74 -44l-128 134l106 64zM222 694q-30 0 -49 19.5t-19 48.5t19 48.5t49 19.5t49 -19.5t19 -48.5
t-19 -48.5t-49 -19.5zM450 694q-30 0 -49 19.5t-19 48.5t19 48.5t49 19.5t49 -19.5t19 -48.5t-19 -48.5t-49 -19.5z" />
    <glyph glyph-name="uni01DC" unicode="&#x1dc;" horiz-adv-x="578" 
d="M210 -12q-41 0 -70.5 14.5t-48.5 41t-28 64t-9 84.5v308h172v-286q0 -48 12 -64t38 -16q24 0 39.5 10t32.5 34v322h172v-500h-140l-12 66h-4q-30 -36 -66.5 -57t-87.5 -21zM278 716l-102 122l90 58l76 -140zM176 564q-30 0 -49 19.5t-19 48.5t19 48.5t49 19.5t49 -19.5
t19 -48.5t-19 -48.5t-49 -19.5zM404 564q-30 0 -49 19.5t-19 48.5t19 48.5t49 19.5t49 -19.5t19 -48.5t-19 -48.5t-49 -19.5z" />
    <glyph glyph-name="uni01E2" unicode="&#x1e2;" horiz-adv-x="854" 
d="M308 348l-36 -83h108v257h-4q-18 -47 -34.5 -91t-33.5 -83zM-22 0l296 650h516v-144h-238v-102h202v-144h-202v-116h248v-144h-420v132h-165l-57 -132h-180zM368 738v108h316v-108h-316z" />
    <glyph glyph-name="uni01E3" unicode="&#x1e3;" horiz-adv-x="786" 
d="M192 -12q-35 0 -63 12.5t-47.5 33.5t-29.5 49t-10 59q0 78 63 123t207 60q-3 26 -18.5 38.5t-49.5 12.5q-27 0 -57 -10.5t-69 -31.5l-60 112q53 32 104.5 49t105.5 17q44 0 79 -17t59 -47q33 32 66.5 48t75.5 16q51 0 89 -19.5t63 -53t37.5 -78.5t12.5 -95
q0 -23 -2.5 -41t-4.5 -27h-275q11 -42 39.5 -59t66.5 -17q26 0 49.5 9.5t50.5 24.5l58 -110q-41 -29 -90.5 -43.5t-91.5 -14.5q-53 0 -95.5 19t-74.5 53q-27 -21 -50.5 -34.5t-45.5 -22t-44.5 -12t-47.5 -3.5zM252 120q22 0 39.5 8t32.5 22q-9 27 -12 53l-2 19
q-57 -9 -80.5 -26.5t-23.5 -39.5q0 -36 46 -36zM468 302h136q0 33 -13.5 56.5t-48.5 23.5q-29 0 -48.5 -18t-25.5 -62zM256 588v108h308v-108h-308z" />
    <glyph glyph-name="Gcaron" unicode="&#x1e6;" horiz-adv-x="646" 
d="M372 -12q-68 0 -128 20.5t-104.5 62t-70 104t-25.5 145.5q0 82 26 145.5t70.5 107t103.5 66.5t124 23q72 0 124.5 -25.5t87.5 -60.5l-90 -110q-24 21 -50.5 34.5t-65.5 13.5q-33 0 -61 -13t-49 -37t-32.5 -59t-11.5 -79q0 -92 41 -141t129 -49q14 0 27.5 3t22.5 9v90h-96
v140h248v-310q-35 -33 -93 -56.5t-127 -23.5zM278 700l-84 110l74 44l102 -80h4l102 80l74 -44l-84 -110h-188z" />
    <glyph glyph-name="gcaron" unicode="&#x1e7;" horiz-adv-x="546" 
d="M240 -206q-43 0 -81 6.5t-66.5 21.5t-45.5 38.5t-17 57.5q0 59 70 96v4q-20 14 -33 34t-13 52q0 26 15 51t41 43v4q-27 18 -47.5 51t-20.5 77q0 46 18 80.5t48 57t68.5 33.5t79.5 11q44 0 80 -12h186v-124h-72q3 -9 5.5 -23t2.5 -29q0 -44 -16 -75.5t-43 -51.5t-64 -29.5
t-79 -9.5q-25 0 -56 7q-8 -7 -10 -12.5t-2 -16.5q0 -17 16 -23.5t54 -6.5h75q94 0 145.5 -30.5t51.5 -99.5q0 -41 -20.5 -74.5t-58 -57.5t-91 -37t-120.5 -13zM256 260q24 0 39 17t15 53q0 35 -15 51.5t-39 16.5t-39 -16.5t-15 -51.5q0 -36 15 -53t39 -17zM268 -100
q42 0 70 12.5t28 33.5q0 20 -17.5 25t-49.5 5h-39q-30 0 -45.5 1.5t-26.5 4.5q-9 -9 -13.5 -17t-4.5 -19q0 -24 27 -35t71 -11zM196 578l-106 128l64 60l128 -84h4l128 84l64 -60l-106 -128h-176z" />
    <glyph glyph-name="uni01EA" unicode="&#x1ea;" horiz-adv-x="692" 
d="M370 -228q-51 0 -86.5 25.5t-35.5 72.5q0 41 21.5 71.5t42.5 48.5q-62 6 -111.5 31.5t-84 69t-53.5 103t-19 134.5q0 80 22 142.5t61.5 105t95 64.5t123.5 22q67 0 123 -22t95.5 -65t61.5 -105t22 -142q0 -70 -14.5 -122.5t-41.5 -91.5t-65.5 -67.5t-86.5 -50.5
q-36 -17 -52 -38.5t-16 -41.5q0 -18 12.5 -26t27.5 -8q9 0 18 4.5t16 9.5l38 -86q-21 -17 -53 -27.5t-61 -10.5zM346 136q59 0 92.5 51.5t33.5 140.5t-33.5 137.5t-92.5 48.5t-92.5 -48.5t-33.5 -137.5t33.5 -140.5t92.5 -51.5z" />
    <glyph glyph-name="uni01EB" unicode="&#x1eb;" horiz-adv-x="560" 
d="M298 -212q-47 0 -79.5 23.5t-32.5 70.5q0 38 18.5 65.5t36.5 43.5q-42 6 -80 26.5t-66.5 53.5t-45.5 78t-17 101q0 62 20.5 111t55 82.5t79.5 51t93 17.5t92.5 -17.5t79 -51t55.5 -82.5t21 -111q0 -49 -12 -87.5t-33.5 -68.5t-51.5 -52.5t-67 -39.5t-50.5 -38.5
t-13.5 -41.5q0 -18 12.5 -26t27.5 -8q9 0 18 3.5t16 8.5l34 -76q-21 -17 -52.5 -26.5t-57.5 -9.5zM280 126q39 0 55.5 33.5t16.5 90.5t-16.5 90.5t-55.5 33.5t-55.5 -33.5t-16.5 -90.5t16.5 -90.5t55.5 -33.5z" />
    <glyph glyph-name="uni01F4" unicode="&#x1f4;" horiz-adv-x="646" 
d="M372 -12q-68 0 -128 20.5t-104.5 62t-70 104t-25.5 145.5q0 82 26 145.5t70.5 107t103.5 66.5t124 23q72 0 124.5 -25.5t87.5 -60.5l-90 -110q-24 21 -50.5 34.5t-65.5 13.5q-33 0 -61 -13t-49 -37t-32.5 -59t-11.5 -79q0 -92 41 -141t129 -49q14 0 27.5 3t22.5 9v90h-96
v140h248v-310q-35 -33 -93 -56.5t-127 -23.5zM364 674l-76 86l182 144l90 -110z" />
    <glyph glyph-name="uni01F5" unicode="&#x1f5;" horiz-adv-x="546" 
d="M240 -206q-43 0 -81 6.5t-66.5 21.5t-45.5 38.5t-17 57.5q0 59 70 96v4q-20 14 -33 34t-13 52q0 26 15 51t41 43v4q-27 18 -47.5 51t-20.5 77q0 46 18 80.5t48 57t68.5 33.5t79.5 11q44 0 80 -12h186v-124h-72q3 -9 5.5 -23t2.5 -29q0 -44 -16 -75.5t-43 -51.5t-64 -29.5
t-79 -9.5q-25 0 -56 7q-8 -7 -10 -12.5t-2 -16.5q0 -17 16 -23.5t54 -6.5h75q94 0 145.5 -30.5t51.5 -99.5q0 -41 -20.5 -74.5t-58 -57.5t-91 -37t-120.5 -13zM256 260q24 0 39 17t15 53q0 35 -15 51.5t-39 16.5t-39 -16.5t-15 -51.5q0 -36 15 -53t39 -17zM268 -100
q42 0 70 12.5t28 33.5q0 20 -17.5 25t-49.5 5h-39q-30 0 -45.5 1.5t-26.5 4.5q-9 -9 -13.5 -17t-4.5 -19q0 -24 27 -35t71 -11zM304 572l-84 84l158 188l116 -114z" />
    <glyph glyph-name="uni01F8" unicode="&#x1f8;" horiz-adv-x="672" 
d="M72 0v650h176l144 -290l62 -146h4q-3 26 -7 57t-7 63.5t-5.5 65t-2.5 62.5v188h164v-650h-176l-144 291l-62 145h-4q6 -56 14 -122t8 -126v-188h-164zM344 674l-196 120l90 110l182 -144z" />
    <glyph glyph-name="uni01F9" unicode="&#x1f9;" horiz-adv-x="582" 
d="M58 0v500h140l12 -60h4q30 29 68.5 50.5t89.5 21.5q82 0 119 -55.5t37 -148.5v-308h-172v286q0 48 -12 64t-38 16q-24 0 -40 -10t-36 -28v-328h-172zM294 572l-190 158l116 114l158 -188z" />
    <glyph glyph-name="uni01FC" unicode="&#x1fc;" horiz-adv-x="854" 
d="M308 348l-36 -83h108v257h-4q-18 -47 -34.5 -91t-33.5 -83zM-22 0l296 650h516v-144h-238v-102h202v-144h-202v-116h248v-144h-420v132h-165l-57 -132h-180zM518 696l-76 86l182 144l90 -110z" />
    <glyph glyph-name="uni01FD" unicode="&#x1fd;" horiz-adv-x="786" 
d="M192 -12q-35 0 -63 12.5t-47.5 33.5t-29.5 49t-10 59q0 78 63 123t207 60q-3 26 -18.5 38.5t-49.5 12.5q-27 0 -57 -10.5t-69 -31.5l-60 112q53 32 104.5 49t105.5 17q44 0 79 -17t59 -47q33 32 66.5 48t75.5 16q51 0 89 -19.5t63 -53t37.5 -78.5t12.5 -95
q0 -23 -2.5 -41t-4.5 -27h-275q11 -42 39.5 -59t66.5 -17q26 0 49.5 9.5t50.5 24.5l58 -110q-41 -29 -90.5 -43.5t-91.5 -14.5q-53 0 -95.5 19t-74.5 53q-27 -21 -50.5 -34.5t-45.5 -22t-44.5 -12t-47.5 -3.5zM252 120q22 0 39.5 8t32.5 22q-9 27 -12 53l-2 19
q-57 -9 -80.5 -26.5t-23.5 -39.5q0 -36 46 -36zM468 302h136q0 33 -13.5 56.5t-48.5 23.5q-29 0 -48.5 -18t-25.5 -62zM430 572l-84 84l158 188l116 -114z" />
    <glyph glyph-name="uni0218" unicode="&#x218;" horiz-adv-x="564" 
d="M278 -12q-62 0 -127.5 22.5t-118.5 70.5l98 118q35 -28 75.5 -45.5t76.5 -17.5q39 0 56.5 12t17.5 34q0 12 -6 20t-17.5 15t-27.5 13.5t-37 14.5l-81 34q-26 10 -50 26.5t-42 39t-28.5 51.5t-10.5 64q0 42 18 78.5t50 64t76.5 43.5t97.5 16q56 0 113.5 -21t102.5 -66
l-86 -108q-33 23 -63.5 35t-66.5 12q-32 0 -50 -11t-18 -33q0 -23 25.5 -35.5t70.5 -29.5l79 -31q61 -24 94 -67t33 -111q0 -41 -17 -79t-49.5 -66.5t-79.5 -45.5t-108 -17zM174 -244l-12 66q57 3 78.5 11t21.5 25q0 12 -13.5 20.5t-46.5 11.5l32 60q43 -3 71.5 -10
t46 -17.5t25 -25t7.5 -33.5q0 -54 -55 -79.5t-155 -28.5z" />
    <glyph glyph-name="uni0219" unicode="&#x219;" horiz-adv-x="452" 
d="M212 -12q-48 0 -101.5 19t-92.5 51l76 106q68 -50 122 -50q27 0 38.5 7.5t11.5 22.5q0 10 -8 17.5t-21.5 14t-30.5 12.5t-36 14q-22 9 -44.5 21.5t-40.5 30.5t-29.5 41.5t-11.5 54.5q0 37 14.5 67t40.5 51t62.5 32.5t80.5 11.5q62 0 106.5 -20.5t77.5 -45.5l-76 -102
q-27 20 -53 31t-49 11q-44 0 -44 -28q0 -10 7.5 -17t20.5 -13t30 -11.5t36 -12.5q22 -8 45 -20t41.5 -29.5t30 -42t11.5 -58.5q0 -35 -14 -65.5t-41 -53t-67 -35t-92 -12.5zM128 -244l-12 66q57 3 78.5 11t21.5 25q0 12 -13.5 20.5t-46.5 11.5l32 60q43 -3 71.5 -10
t46 -17.5t25 -25t7.5 -33.5q0 -54 -55 -79.5t-155 -28.5z" />
    <glyph glyph-name="uni021A" unicode="&#x21a;" horiz-adv-x="564" 
d="M196 0v506h-172v144h516v-144h-172v-506h-172zM174 -244l-12 66q57 3 78.5 11t21.5 25q0 12 -13.5 20.5t-46.5 11.5l32 60q43 -3 71.5 -10t46 -17.5t25 -25t7.5 -33.5q0 -54 -55 -79.5t-155 -28.5z" />
    <glyph glyph-name="uni021B" unicode="&#x21b;" horiz-adv-x="400" 
d="M264 -12q-49 0 -83.5 14.5t-57 41.5t-33 64.5t-10.5 83.5v174h-66v128l76 6l20 130h142v-130h114v-134h-114v-171q0 -42 18 -57.5t42 -15.5q12 0 23.5 2.5t20.5 5.5l26 -124q-20 -6 -48 -12t-70 -6zM136 -244l-12 66q57 3 78.5 11t21.5 25q0 12 -13.5 20.5t-46.5 11.5
l32 60q43 -3 71.5 -10t46 -17.5t25 -25t7.5 -33.5q0 -54 -55 -79.5t-155 -28.5z" />
    <glyph glyph-name="uni0237" unicode="&#x237;" horiz-adv-x="290" 
d="M38 -188q-35 0 -56 4t-38 10l30 126q11 -3 19 -4.5t17 -1.5q27 0 38.5 16.5t11.5 57.5v480h172v-474q0 -42 -9 -80.5t-31.5 -68.5t-60 -47.5t-93.5 -17.5z" />
    <glyph glyph-name="uni0243" unicode="&#x243;" horiz-adv-x="638" 
d="M98 0v174h-74v74l74 6v396h234q51 0 96 -7.5t78 -25.5t52.5 -48t19.5 -75q0 -20 -6 -39t-19.5 -36t-34 -30.5t-48.5 -20.5v-4q69 -14 103.5 -53.5t34.5 -108.5q0 -53 -20.5 -91t-55 -63t-81.5 -36.5t-99 -11.5h-254zM270 404h58q42 0 64 19t22 49t-22 43t-64 13h-58v-124
zM270 122h70q51 0 77.5 24.5t26.5 69.5q0 47 -26.5 67.5t-77.5 20.5h-70v-50h116v-80h-116v-52z" />
    <glyph glyph-name="uni0250" unicode="&#x250;" horiz-adv-x="542" 
d="M280 -12q-107 0 -167.5 57.5t-60.5 180.5v274h140l12 -58h4q27 32 64.5 51t87.5 19q33 0 58.5 -11t42.5 -30t26 -44.5t9 -54.5q0 -80 -64 -131t-208 -67q4 -27 24 -38.5t58 -11.5q28 0 56.5 10.5t67.5 31.5l60 -112q-51 -32 -103 -49t-107 -17zM224 278q62 9 85 27t23 39
q0 17 -11 26.5t-29 9.5q-21 0 -37.5 -12t-30.5 -32v-58z" />
    <glyph glyph-name="uni0251" unicode="&#x251;" horiz-adv-x="580" 
d="M240 -12q-47 0 -84.5 18t-64 52t-41 82.5t-14.5 109.5t18 110t47.5 82.5t67 51.5t75.5 18q36 0 66.5 -14.5t59.5 -47.5h4l14 50h134v-500h-140l-12 46h-4q-26 -26 -59.5 -42t-66.5 -16zM286 128q20 0 35 7.5t29 28.5v184q-15 14 -33 19t-35 5q-27 0 -48.5 -27t-21.5 -93
q0 -68 19.5 -96t54.5 -28z" />
    <glyph glyph-name="uni0252" unicode="&#x252;" horiz-adv-x="580" 
d="M336 -12q-32 0 -64.5 14.5t-61.5 47.5h-4l-14 -50h-134v500h140l12 -46h4q28 26 63 42t73 16q44 0 80 -18t61.5 -51t39 -80t13.5 -105q0 -65 -17.5 -115t-46.5 -84.5t-66.5 -52.5t-77.5 -18zM294 128q30 0 52 28t22 100q0 62 -17.5 89t-52.5 27q-20 0 -35.5 -8t-32.5 -28
v-184q15 -14 31 -19t33 -5z" />
    <glyph glyph-name="uni0253" unicode="&#x253;" horiz-adv-x="580" 
d="M336 -12q-33 0 -65 16.5t-61 49.5h-4l-14 -54h-134v486q0 44 11.5 84t37 71t67 49t102.5 18q35 0 62 -6t44 -12l-30 -126q-12 5 -25 7.5t-25 2.5q-33 0 -51 -17.5t-23 -64.5l-2 -50q26 24 58 37t65 13q44 0 80 -17.5t61.5 -49t39.5 -76.5t14 -100q0 -63 -17.5 -111.5
t-46.5 -81.5t-66.5 -50.5t-77.5 -17.5zM294 128q15 0 28.5 6t23.5 19.5t16 36.5t6 56q0 57 -17.5 81.5t-52.5 24.5q-20 0 -35.5 -8t-32.5 -28v-164q15 -14 31 -19t33 -5z" />
    <glyph glyph-name="uni0254" unicode="&#x254;" horiz-adv-x="472" 
d="M188 -12q-39 0 -83.5 12.5t-82.5 45.5l66 112q18 -14 38.5 -23t41.5 -9q41 0 68.5 33.5t27.5 90.5t-25.5 90.5t-66.5 33.5q-21 0 -35 -5t-31 -19l-80 110q29 23 72 37.5t94 14.5q50 0 95 -17.5t79 -50.5t54 -82t20 -112q0 -62 -19.5 -111t-54 -82.5t-80.5 -51t-98 -17.5z
" />
    <glyph glyph-name="uni0255" unicode="&#x255;" horiz-adv-x="472" 
d="M298 118q21 0 32.5 11t11.5 25q0 11 -7.5 20.5t-24.5 9.5q-32 0 -68 -45q24 -21 56 -21zM142 -74l-132 58q13 35 27.5 65t30.5 56q-17 30 -26.5 66t-9.5 79q0 62 22 111t59 82.5t85.5 51t101.5 17.5q45 0 81 -14t65 -38l-74 -102q-17 14 -32.5 19t-29.5 5
q-53 0 -82.5 -35t-29.5 -95q64 44 126 44q67 0 105.5 -38t38.5 -104q0 -35 -12 -65t-34.5 -52.5t-55.5 -35.5t-74 -13q-66 0 -120 24q-8 -20 -15.5 -41.5t-14.5 -44.5z" />
    <glyph glyph-name="uni0256" unicode="&#x256;" horiz-adv-x="580" 
d="M534 -188q-46 0 -79.5 13.5t-55.5 35.5t-32.5 50t-10.5 57v70q-24 -23 -54 -36.5t-62 -13.5q-47 0 -84.5 18t-64 52t-41 82.5t-14.5 109.5t17.5 110t46 82.5t65.5 51.5t75 18q41 0 67 -13.5t49 -36.5l-6 72v174h172v-698q0 -35 9 -49.5t31 -14.5q11 0 26 6l30 -126
q-15 -6 -34 -10t-50 -4zM286 128q20 0 35 7.5t29 28.5v184q-15 14 -33 19t-35 5q-27 0 -48.5 -27t-21.5 -93q0 -68 19.5 -96t54.5 -28z" />
    <glyph glyph-name="uni0257" unicode="&#x257;" horiz-adv-x="580" 
d="M240 -12q-47 0 -84.5 18t-64 52t-41 82.5t-14.5 109.5t17.5 110t46 82.5t65.5 51.5t75 18q41 0 67 -13.5t49 -36.5v62q0 36 9.5 69.5t32 59t58 40.5t88.5 15q27 0 43.5 -2.5t30.5 -7.5l-30 -126q-5 2 -8 2h-8q-27 0 -38.5 -14.5t-11.5 -49.5v-510h-140l-12 46h-4
q-26 -26 -59.5 -42t-66.5 -16zM286 128q20 0 35 7.5t29 28.5v184q-15 14 -33 19t-35 5q-27 0 -48.5 -27t-21.5 -93q0 -68 19.5 -96t54.5 -28z" />
    <glyph glyph-name="uni0258" unicode="&#x258;" horiz-adv-x="526" 
d="M240 -12q-21 0 -45 3.5t-48.5 11t-48.5 18.5t-44 25l56 102q54 -30 106 -30q42 0 71 17.5t41 62.5h-285q-2 9 -4.5 29t-2.5 43q0 50 15 94t43.5 77t71 52t98.5 19q46 0 87.5 -18t73 -52t50.5 -82.5t19 -109.5q0 -62 -19 -111t-53 -82.5t-80.5 -51t-101.5 -17.5zM182 310
h148q-6 38 -24.5 55t-47.5 17q-39 0 -57.5 -21.5t-18.5 -50.5z" />
    <glyph glyph-name="uni0259" unicode="&#x259;" horiz-adv-x="526" 
d="M254 -12q-56 0 -97 19t-68 52t-40 77t-13 94q0 23 2.5 43t4.5 29h285q-11 45 -37 62.5t-65 17.5q-51 0 -102 -30l-56 110q43 29 93 39.5t95 10.5q50 0 93.5 -18t75.5 -52t50.5 -82.5t18.5 -109.5t-20 -109.5t-53 -82.5t-76.5 -52t-90.5 -18zM250 118q29 0 50.5 15.5
t29.5 56.5h-148q0 -29 14.5 -50.5t53.5 -21.5z" />
    <glyph glyph-name="uni025A" unicode="&#x25a;" horiz-adv-x="730" 
d="M264 -12q-59 0 -101.5 19.5t-69.5 52.5t-41 75.5t-16 88.5l275 120q-26 38 -86 38q-50 0 -101 -30l-56 110q44 29 93 39.5t88 10.5q72 0 123 -28.5t81 -78.5l99 43l80 -30q0 -56 10 -77t34 -21q13 0 23 3t18 7l33 -80q-17 -11 -37 -18.5t-43 -7.5q-19 0 -38 4t-36.5 14.5
t-32 29.5t-23.5 50l-51 -22q2 -15 3.5 -30t1.5 -31q0 -52 -17 -98t-47 -80t-72.5 -53.5t-93.5 -19.5zM258 116q33 0 55.5 29t22.5 78v9l-148 -66q6 -24 25 -37t45 -13z" />
    <glyph glyph-name="uni025B" unicode="&#x25b;" horiz-adv-x="470" 
d="M276 -12q-43 0 -84.5 9.5t-74.5 29t-53 49t-20 68.5q0 50 27.5 78t75.5 40v4q-43 12 -62 41.5t-19 58.5q0 39 17.5 66.5t46.5 45t67.5 26t80.5 8.5q88 0 164 -44l-62 -110q-24 12 -45 18t-47 6q-27 0 -40.5 -11.5t-13.5 -28.5q0 -18 13 -25t39 -7h73v-112h-89
q-31 0 -44.5 -7.5t-13.5 -28.5t23 -32.5t58 -11.5q18 0 42.5 6t50.5 20l66 -108q-47 -29 -88.5 -38.5t-87.5 -9.5z" />
    <glyph glyph-name="uni025C" unicode="&#x25c;" horiz-adv-x="484" 
d="M218 -12q-48 0 -92 9.5t-94 38.5l66 108q26 -14 50.5 -20t42.5 -6q35 0 58 11.5t23 32.5t-13.5 28.5t-44.5 7.5h-89v112h73q26 0 39 7t13 25q0 17 -13.5 28.5t-40.5 11.5q-26 0 -47 -6t-45 -18l-62 110q81 44 174 44q40 0 76.5 -8.5t64.5 -26t44.5 -45t16.5 -66.5
q0 -29 -19 -58.5t-62 -41.5v-4q48 -12 75.5 -40t27.5 -78q0 -39 -19.5 -68.5t-51 -49t-71 -29t-80.5 -9.5z" />
    <glyph glyph-name="uni025E" unicode="&#x25e;" horiz-adv-x="574" 
d="M274 -12q-43 0 -84 9.5t-73.5 29t-52.5 49t-20 68.5q0 50 27.5 78t75.5 40v4q-43 12 -62 41.5t-19 58.5q0 39 17 66.5t46 45t67 26t80 8.5q52 0 100 -16t85.5 -49t60 -82t22.5 -115t-21.5 -115t-58 -82t-86 -49t-104.5 -16zM274 118q47 0 70.5 30t23.5 102t-22 102
t-66 30q-20 0 -33 -11.5t-13 -28.5q0 -18 11 -25t31 -7h33v-112h-49q-26 0 -37 -7.5t-11 -28.5t17.5 -32.5t44.5 -11.5z" />
    <glyph glyph-name="uni025F" unicode="&#x25f;" horiz-adv-x="340" 
d="M62 -188q-35 0 -56 4t-38 10l30 126q11 -3 19 -4.5t17 -1.5q27 0 38.5 16.5t11.5 57.5v200h-70v74l70 6v200h172v-200h66v-80h-66v-194q0 -42 -9 -80.5t-31.5 -68.5t-60 -47.5t-93.5 -17.5z" />
    <glyph glyph-name="uni0260" unicode="&#x260;" horiz-adv-x="592" 
d="M262 -186q-20 0 -43.5 3.5t-48.5 10.5t-50.5 17.5t-47.5 24.5l56 112q35 -18 70 -26t64 -8q50 0 69.5 18t24.5 44l4 50q-23 -21 -52.5 -32.5t-61.5 -11.5q-47 0 -84.5 18.5t-64 51t-41 77t-14.5 97.5q0 57 18 103.5t47.5 79.5t67 51t75.5 18q36 0 61.5 -13.5t48.5 -36.5
v30q0 29 9.5 59.5t32 55t58.5 40t90 15.5q27 0 43.5 -2.5t30.5 -7.5l-30 -126q-4 2 -8 2h-8q-27 0 -38.5 -15.5t-11.5 -48.5v-448q0 -100 -69 -151t-197 -51zM292 154q20 0 34.5 7.5t29.5 30.5v156q-15 14 -33 19t-35 5q-29 0 -50.5 -26.5t-21.5 -83.5q0 -54 20.5 -81
t55.5 -27z" />
    <glyph glyph-name="uni0261" unicode="&#x261;" horiz-adv-x="592" 
d="M262 -186q-20 0 -43.5 3.5t-48.5 10.5t-50.5 17.5t-47.5 24.5l56 112q35 -18 70 -26t64 -8q50 0 69.5 18t24.5 44l4 50q-23 -21 -52.5 -32.5t-61.5 -11.5q-47 0 -84.5 18.5t-64 51t-41 77t-14.5 97.5q0 57 18 103.5t47.5 79.5t67 51t75.5 18q36 0 66.5 -13t57.5 -45h4
l12 46h138v-484q0 -100 -69 -151t-197 -51zM292 154q20 0 34.5 7.5t29.5 30.5v156q-15 14 -33 19t-35 5q-29 0 -50.5 -26.5t-21.5 -83.5q0 -54 20.5 -81t55.5 -27z" />
    <glyph glyph-name="uni0262" unicode="&#x262;" horiz-adv-x="524" 
d="M291 -12q-49 0 -95.5 15t-83 47t-58.5 80.5t-22 116.5q0 64 22.5 113.5t59.5 83t84 51t95 17.5q32 0 57.5 -4.5t47 -12.5t39.5 -19t35 -24l-76 -102q-23 14 -41 23t-50 9q-18 0 -35.5 -7.5t-31.5 -23.5t-23 -42t-9 -62q0 -63 27 -96t71 -33q23 0 36 8v72h-74v112h220
v-255q-32 -29 -83.5 -48t-111.5 -19z" />
    <glyph glyph-name="uni0263" unicode="&#x263;" horiz-adv-x="544" 
d="M276 -206q-77 0 -123.5 42.5t-46.5 113.5q0 19 4 36.5t11.5 35t18 37t24.5 42.5l-152 399h172l54 -188q9 -32 18 -57t18 -60h4q9 35 18 60t18 57l54 188h164l-145 -396q29 -48 44 -81.5t15 -72.5q0 -71 -46.5 -113.5t-123.5 -42.5zM276 -100q14 0 23 10t9 28
q0 19 -7 39.5t-24 52.5h-5q-15 -32 -21.5 -52.5t-6.5 -39.5q0 -18 9 -28t23 -10z" />
    <glyph glyph-name="uni0264" unicode="&#x264;" horiz-adv-x="592" 
d="M296 -12q-46 0 -84 12t-65 35.5t-42 58.5t-15 81q0 40 24 84t66 83q-15 18 -33.5 25t-36.5 7q-29 0 -46 -14l-48 124q18 14 52 21t66 7q41 0 83.5 -17t78.5 -59q36 42 78.5 59t83.5 17q32 0 66 -7t52 -21l-48 -124q-8 6 -20.5 10t-25.5 4q-19 0 -37 -7t-33 -25
q42 -39 66 -83t24 -84q0 -46 -15 -81t-42 -58.5t-65 -35.5t-84 -12zM296 126q22 0 34 14t12 40q0 20 -12 43t-34 43q-22 -20 -34 -43t-12 -43q0 -26 12 -40t34 -14z" />
    <glyph glyph-name="uni0265" unicode="&#x265;" horiz-adv-x="582" 
d="M352 -176v142l8 90q-26 -27 -62.5 -47.5t-87.5 -20.5q-41 0 -70.5 14.5t-48.5 41t-28 64t-9 84.5v308h172v-286q0 -48 12 -64t38 -16q24 0 41.5 10t34.5 34v322h172v-676h-172z" />
    <glyph glyph-name="uni0266" unicode="&#x266;" horiz-adv-x="582" 
d="M58 0v486q0 44 11.5 84t37 71t67 49t102.5 18q35 0 62 -6t44 -12l-30 -126q-12 5 -25 7.5t-25 2.5q-33 0 -51 -17.5t-23 -64.5l-6 -64q26 23 62.5 43.5t87.5 20.5q82 0 119 -55.5t37 -148.5v-288h-172v266q0 48 -12 64t-38 16q-24 0 -40 -10t-36 -28v-308h-172z" />
    <glyph glyph-name="uni0267" unicode="&#x267;" horiz-adv-x="582" 
d="M334 -188q-35 0 -56 4t-38 10l30 126q11 -3 19 -4.5t17 -1.5q27 0 38.5 16.5t11.5 57.5v246q0 48 -12 64t-38 16q-24 0 -40 -10t-36 -28v-308h-172v486q0 44 11.5 84t37 71t67 49t102.5 18q35 0 62 -6t44 -12l-30 -126q-12 5 -25 7.5t-25 2.5q-33 0 -51 -17.5t-23 -64.5
l-6 -64q26 23 62.5 43.5t87.5 20.5q82 0 119 -55.5t37 -148.5v-262q0 -42 -9 -80.5t-31.5 -68.5t-60 -47.5t-93.5 -17.5z" />
    <glyph glyph-name="uni0268" unicode="&#x268;" horiz-adv-x="340" 
d="M14 220v74l70 6v200h172v-200h66v-80h-66v-220h-172v220h-70zM170 562q-42 0 -69 24t-27 62t27 62t69 24t69 -24t27 -62t-27 -62t-69 -24z" />
    <glyph glyph-name="uni026A" unicode="&#x26a;" horiz-adv-x="416" 
d="M54 0v134h68v232h-68v134h308v-134h-68v-232h68v-134h-308z" />
    <glyph glyph-name="uni026C" unicode="&#x26c;" horiz-adv-x="406" 
d="M143 282q-41 0 -70.5 8.5t-48 23.5t-27.5 35t-9 43q0 46 31 76t79 30q30 0 52 -14v212h172v-334h66v-80h-66v-112q0 -26 9.5 -35t18.5 -9h8.5t9.5 2l20 -126q-14 -6 -34.5 -10t-49.5 -4q-44 0 -73.5 13.5t-47.5 38.5t-25.5 59.5t-7.5 76.5v106h-7zM150 362q0 7 -2 17
t-7 19t-14 15.5t-23 6.5t-21 -7.5t-7 -19.5q0 -13 12.5 -22t38.5 -9h23z" />
    <glyph glyph-name="uni026D" unicode="&#x26d;" horiz-adv-x="298" 
d="M242 -188q-53 0 -88.5 17t-56.5 45t-30 65t-9 77v680h172v-686q0 -35 9 -49.5t31 -14.5q11 0 26 6l30 -126q-15 -6 -34 -10t-50 -4z" />
    <glyph glyph-name="uni026E" unicode="&#x26e;" horiz-adv-x="664" 
d="M406 -188q-72 0 -123 23.5t-87 58.5l76 106q24 -21 52 -35.5t60 -14.5q39 0 62.5 23t23.5 67q0 38 -23 58t-59 20q-20 0 -29.5 -2t-26.5 -8l-54 80l136 178h-184v-366h-172v696h172v-196h388v-92l-134 -173q77 -13 117.5 -64.5t40.5 -126.5q0 -56 -18.5 -99t-51 -72.5
t-75.5 -45t-91 -15.5z" />
    <glyph glyph-name="uni026F" unicode="&#x26f;" horiz-adv-x="868" 
d="M216 -12q-83 0 -120.5 55.5t-37.5 148.5v308h172v-286q0 -48 12 -64t38 -16q32 0 70 38v328h172v-286q0 -48 12 -64t38 -16q32 0 70 38v328h172v-500h-140l-12 61h-4q-30 -29 -64.5 -51t-85.5 -22t-84.5 20.5t-53.5 59.5q-31 -32 -67 -56t-87 -24z" />
    <glyph glyph-name="uni0270" unicode="&#x270;" horiz-adv-x="868" 
d="M642 -176v143l8 89q-33 -33 -65 -50.5t-77 -17.5q-51 0 -84.5 20.5t-53.5 59.5q-31 -32 -67 -56t-87 -24q-83 0 -120.5 55.5t-37.5 148.5v308h172v-286q0 -48 12 -64t38 -16q32 0 70 38v328h172v-286q0 -48 12 -64t38 -16q32 0 70 38v328h172v-676h-172z" />
    <glyph glyph-name="uni0271" unicode="&#x271;" horiz-adv-x="868" 
d="M630 -188q-30 0 -49.5 4t-34.5 10l30 126q15 -6 26 -6q23 0 31.5 16.5t8.5 57.5v266q0 48 -12 64t-38 16q-32 0 -70 -38v-328h-172v286q0 48 -12 64t-38 16q-32 0 -70 -38v-328h-172v500h140l12 -61h4q30 29 64.5 51t85.5 22t84.5 -20.5t53.5 -59.5q31 32 67 56t87 24
q82 0 120 -55.5t38 -148.5v-282q0 -42 -9 -80.5t-30 -68.5t-56.5 -47.5t-88.5 -17.5z" />
    <glyph glyph-name="uni0272" unicode="&#x272;" horiz-adv-x="582" 
d="M46 -188q-31 0 -50 4t-34 10l30 126q15 -6 26 -6q22 0 31 14.5t9 49.5v490h140l12 -60h4q30 29 68.5 50.5t89.5 21.5q82 0 119 -55.5t37 -148.5v-308h-172v286q0 48 -12 64t-38 16q-24 0 -40 -10t-36 -28v-312q0 -40 -9 -77t-30 -65t-56.5 -45t-88.5 -17z" />
    <glyph glyph-name="uni0273" unicode="&#x273;" horiz-adv-x="582" 
d="M540 -188q-53 0 -88.5 17t-56.5 45t-30 65t-9 77v270q0 48 -12 64t-38 16q-24 0 -40 -10t-36 -28v-328h-172v500h140l12 -60h4q30 29 68.5 50.5t89.5 21.5q82 0 119 -55.5t37 -148.5v-298q0 -35 9 -49.5t31 -14.5q11 0 26 6l30 -126q-15 -6 -34 -10t-50 -4z" />
    <glyph glyph-name="uni0274" unicode="&#x274;" horiz-adv-x="568" 
d="M58 0v500h158l98 -184q11 -22 24 -52t23 -52h3q-5 45 -9.5 91.5t-4.5 83.5v113h160v-500h-158l-99 184q-11 21 -23.5 51t-22.5 53h-4l10 -92t5 -83v-113h-160z" />
    <glyph glyph-name="uni0275" unicode="&#x275;" horiz-adv-x="560" 
d="M280 -12q-49 0 -93.5 16.5t-79 49.5t-55 82t-20.5 114q0 64 20.5 113t55 82t79 50t93.5 17t93.5 -17t79 -50t55 -82t20.5 -113q0 -65 -20.5 -114t-55 -82t-79 -49.5t-93.5 -16.5zM280 385q-65 0 -82 -75h164q-17 75 -82 75zM280 116q69 0 84 82h-168q15 -82 84 -82z" />
    <glyph glyph-name="uni0276" unicode="&#x276;" horiz-adv-x="736" 
d="M292 -12q-48 0 -94.5 15.5t-83.5 47.5t-59.5 81t-22.5 117q0 66 22.5 115.5t59.5 82.5t83.5 49t94.5 16q16 0 29.5 -0.5t27 -2t28.5 -3.5t35 -6h286v-124h-196v-66h168v-112h-168v-76h206v-122h-296q-36 -8 -62 -10t-58 -2zM301 123q17 0 33 4v244q-16 4 -33 4
t-33.5 -6.5t-30 -21.5t-21.5 -39t-8 -59q0 -38 8 -62.5t21.5 -38.5t30 -19.5t33.5 -5.5z" />
    <glyph glyph-name="uni0278" unicode="&#x278;" horiz-adv-x="760" 
d="M208 250q0 -63 24.5 -94.5t69.5 -35.5v260q-45 -4 -69.5 -35.5t-24.5 -94.5zM552 250q0 63 -24.5 94.5t-69.5 35.5v-260q45 4 69.5 35.5t24.5 94.5zM302 -176v169q-53 3 -101.5 21t-86 50.5t-60 79t-22.5 106.5t22.5 106.5t60 79t86 50.5t101.5 21v189h156v-189
q53 -3 101.5 -21t86 -50.5t60 -79t22.5 -106.5t-22.5 -106.5t-60 -79t-86 -50.5t-101.5 -21v-169h-156z" />
    <glyph glyph-name="uni0279" unicode="&#x279;" horiz-adv-x="418" 
d="M62 -12q-23 0 -37 2.5t-25 7.5l28 148q14 -3 26.5 -5.5t29.5 -2.5q27 0 56.5 18.5t47.5 65.5v278h172v-500h-140l-12 86h-4q-28 -51 -66.5 -74.5t-75.5 -23.5z" />
    <glyph glyph-name="uni027A" unicode="&#x27a;" horiz-adv-x="418" 
d="M62 -12q-23 0 -37 2.5t-25 7.5l28 148q14 -3 26.5 -5.5t29.5 -2.5q27 0 56.5 18.5t47.5 65.5v474h172v-696h-140l-12 86h-4q-28 -51 -66.5 -74.5t-75.5 -23.5z" />
    <glyph glyph-name="uni027B" unicode="&#x27b;" horiz-adv-x="418" 
d="M372 -188q-47 0 -78.5 15t-50.5 39.5t-27 56.5t-8 67v96h-4q-28 -51 -66.5 -74.5t-75.5 -23.5q-23 0 -37 2.5t-25 7.5l28 148q14 -3 26.5 -5.5t29.5 -2.5q27 0 56.5 18.5t47.5 65.5v278h172v-490q0 -35 9 -49.5t31 -14.5q11 0 26 6l30 -126q-15 -6 -34 -10t-50 -4z" />
    <glyph glyph-name="uni027D" unicode="&#x27d;" horiz-adv-x="418" 
d="M242 -188q-53 0 -88.5 17t-56.5 45t-30 65t-9 77v484h140l12 -86h4q28 51 66.5 74.5t75.5 23.5q23 0 37 -2.5t25 -7.5l-28 -148q-14 3 -26.5 5.5t-29.5 2.5q-27 0 -56.5 -18.5t-47.5 -65.5v-268q0 -35 9 -49.5t31 -14.5q11 0 26 6l30 -126q-15 -6 -34 -10t-50 -4z" />
    <glyph glyph-name="uni027E" unicode="&#x27e;" horiz-adv-x="398" 
d="M58 0v300q0 42 11.5 80.5t37.5 67.5t67.5 46.5t101.5 17.5q41 0 71.5 -4t50.5 -10l-26 -144q-11 3 -19.5 5t-16 3t-15.5 1.5t-19 0.5t-23.5 -5t-23 -16.5t-18 -31t-7.5 -49.5v-262h-172z" />
    <glyph glyph-name="uni0280" unicode="&#x280;" horiz-adv-x="546" 
d="M58 0v500h217q44 0 82.5 -8.5t67.5 -28.5t46 -53t17 -82q0 -48 -19.5 -82t-51.5 -55l121 -191h-191l-79 150h-38v-150h-172zM230 265h25q33 0 48.5 16.5t15.5 41.5q0 52 -64 52h-25v-110z" />
    <glyph glyph-name="uni0281" unicode="&#x281;" horiz-adv-x="546" 
d="M271 0q-44 0 -82.5 8.5t-67.5 28.5t-46 53t-17 82q0 48 19.5 82t51.5 55l-121 191h191l79 -150h38v150h172v-500h-217zM291 125h25v110h-25q-33 0 -48.5 -16.5t-15.5 -41.5q0 -52 64 -52z" />
    <glyph glyph-name="uni0282" unicode="&#x282;" horiz-adv-x="452" 
d="M212 -12q-21 0 -42 3q7 -49 50 -49q9 0 17 1.5t19 4.5l30 -122q-17 -6 -38 -10t-56 -4q-50 0 -83.5 17.5t-53.5 47.5t-28.5 68.5t-8.5 80.5v28l76 106q35 -26 65.5 -36t56.5 -10q27 0 38.5 7.5t11.5 22.5q0 10 -8 17.5t-21.5 14t-30.5 12.5t-36 14q-22 9 -44.5 21.5
t-40.5 30.5t-29.5 41.5t-11.5 54.5q0 37 14.5 67t40.5 51t62.5 32.5t80.5 11.5q62 0 106.5 -20.5t77.5 -45.5l-76 -102q-27 20 -53 31t-49 11q-44 0 -44 -28q0 -10 7.5 -17t20.5 -13t30 -11.5t36 -12.5q22 -8 45 -20t41.5 -29.5t30 -42t11.5 -58.5q0 -35 -14 -65.5t-41 -53
t-67 -35t-92 -12.5z" />
    <glyph glyph-name="uni0283" unicode="&#x283;" horiz-adv-x="290" 
d="M38 -188q-35 0 -56 4t-38 10l30 126q11 -3 19 -4.5t17 -1.5q27 0 38.5 16.5t11.5 57.5v474q0 42 9.5 80.5t33 68.5t63 47.5t98.5 17.5q31 0 50 -4t34 -10l-30 -126q-15 6 -26 6q-32 0 -46 -16.5t-14 -57.5v-474q0 -42 -9 -80.5t-31.5 -68.5t-60 -47.5t-93.5 -17.5z" />
    <glyph glyph-name="uni0284" unicode="&#x284;" horiz-adv-x="340" 
d="M62 -188q-35 0 -56 4t-38 10l30 126q11 -3 19 -4.5t17 -1.5q27 0 38.5 16.5t11.5 57.5v200h-70v74l70 6v194q0 42 9.5 80.5t33 68.5t63 47.5t98.5 17.5q31 0 50 -4t34 -10l-30 -126q-15 6 -26 6q-32 0 -46 -16.5t-14 -57.5v-200h66v-80h-66v-194q0 -42 -9 -80.5
t-31.5 -68.5t-60 -47.5t-93.5 -17.5z" />
    <glyph glyph-name="uni0288" unicode="&#x288;" horiz-adv-x="400" 
d="M264 -188q-49 0 -83.5 14.5t-57 41.5t-33 64.5t-10.5 83.5v350h-66v128l76 6l20 130h142v-130h114v-134h-114v-347q0 -42 18 -57.5t42 -15.5q12 0 23.5 2.5t20.5 5.5l26 -124q-20 -6 -48 -12t-70 -6z" />
    <glyph glyph-name="uni0289" unicode="&#x289;" horiz-adv-x="634" 
d="M14 270v74l70 6v150h172v-150h122v150h172v-150h66v-80h-66v-270h-140l-12 66h-4q-30 -36 -66.5 -57t-87.5 -21q-41 0 -70.5 14.5t-48.5 41t-28 64t-9 84.5v78h-70zM306 134q24 0 39.5 10t32.5 34v92h-122v-56q0 -48 12 -64t38 -16z" />
    <glyph glyph-name="uni028A" unicode="&#x28a;" horiz-adv-x="564" 
d="M282 -12q-59 0 -104.5 18.5t-77 48t-48 67t-16.5 76.5q0 54 20 96.5t46 68.5v3h-76v134h225v-111q-12 -18 -20 -34.5t-13 -34.5t-7.5 -38.5t-2.5 -46.5q0 -48 17.5 -78.5t56.5 -30.5t56.5 30.5t17.5 78.5q0 26 -2.5 46.5t-7.5 38.5t-13 34.5t-20 34.5v111h225v-134h-76
v-3q26 -26 46 -68.5t20 -96.5q0 -39 -16.5 -76.5t-48 -67t-77 -48t-104.5 -18.5z" />
    <glyph glyph-name="uni028B" unicode="&#x28b;" horiz-adv-x="560" 
d="M278 -12q-106 0 -165 59.5t-59 174.5v278h172v-277q0 -97 60 -97q32 0 49 39t17 113q0 54 -9.5 78t-32.5 24q-5 0 -8.5 -0.5t-7.5 -1.5l-18 126q14 5 30.5 6.5t41.5 1.5q37 0 70 -12t57.5 -37.5t38.5 -64.5t14 -94q0 -72 -15.5 -130.5t-47 -99.5t-78.5 -63.5t-109 -22.5z
" />
    <glyph glyph-name="uni028C" unicode="&#x28c;" horiz-adv-x="544" 
d="M12 0l158 500h198l164 -500h-172l-54 218q-18 75 -36 156h-4q-18 -81 -36 -156l-54 -218h-164z" />
    <glyph glyph-name="uni028D" unicode="&#x28d;" horiz-adv-x="798" 
d="M24 0l114 500h200l36 -174l12 -70t12 -77h4l11 77t11 70l34 174h196l120 -500h-170l-38 210q-6 38 -10 75.5t-10 76.5h-4q-6 -39 -12.5 -77.5t-15.5 -74.5l-46 -210h-146l-48 210q-9 38 -15.5 75.5t-14.5 76.5h-4q-6 -39 -10 -76.5t-10 -75.5l-38 -210h-158z" />
    <glyph glyph-name="uni028E" unicode="&#x28e;" horiz-adv-x="542" 
d="M12 0l176 512q19 51 40 88t48 61t61 35.5t81 11.5q26 0 42.5 -2.5t33.5 -7.5l-30 -130q-7 2 -15.5 4t-16.5 2q-35 0 -52.5 -13.5t-25.5 -36.5l-14 -42l190 -482h-172l-60 192q-11 35 -19 69.5t-17 72.5h-4q-8 -36 -15.5 -71t-16.5 -71l-50 -192h-164z" />
    <glyph glyph-name="uni028F" unicode="&#x28f;" horiz-adv-x="486" 
d="M158 0v144l-168 356h180l34 -96q9 -31 18.5 -59.5t19.5 -60.5h4q10 32 19.5 60.5t20.5 59.5l32 96h178l-166 -356v-144h-172z" />
    <glyph glyph-name="uni0290" unicode="&#x290;" horiz-adv-x="474" 
d="M452 -188q-52 0 -87 16.5t-56.5 43t-31 59.5t-9.5 65v4h-228v92l190 274h-168v134h382v-92l-190 -274h186v-124q0 -35 9 -49.5t31 -14.5q11 0 26 6l30 -126q-15 -6 -34 -10t-50 -4z" />
    <glyph glyph-name="uni0291" unicode="&#x291;" horiz-adv-x="524" 
d="M306 -82l-79 16q7 34 15 66h-202v92l190 274h-168v134h370v-92l-190 -274q11 -2 21.5 -2.5t21.5 -1.5q28 64 63 102t80 38q51 0 80.5 -28.5t29.5 -87.5q0 -32 -10.5 -60t-33 -49t-57.5 -33t-84 -12h-29q-5 -19 -9 -39t-9 -43zM399 124q26 0 38.5 10.5t12.5 24.5
q0 23 -26 23q-28 0 -57 -58h32z" />
    <glyph glyph-name="uni0292" unicode="&#x292;" horiz-adv-x="474" 
d="M216 -188q-72 0 -123 23.5t-87 58.5l76 106q24 -21 52 -35.5t60 -14.5q39 0 62.5 23t23.5 67q0 38 -23 58t-59 20q-20 0 -29.5 -2t-26.5 -8l-54 80l136 178h-188v134h392v-92l-134 -173q77 -13 117.5 -64.5t40.5 -126.5q0 -56 -18.5 -99t-51 -72.5t-75.5 -45t-91 -15.5z
" />
    <glyph glyph-name="uni0294" unicode="&#x294;" horiz-adv-x="460" 
d="M122 0v314q42 28 71 51t46.5 43.5t25 40t7.5 41.5q0 40 -22 60t-58 20q-33 0 -62.5 -17t-53.5 -43l-84 108q38 39 91.5 64.5t128.5 25.5q46 0 88.5 -13t74 -39t50.5 -65.5t19 -92.5q0 -41 -11 -74t-31 -62t-47.5 -56t-60.5 -54v-252h-172z" />
    <glyph glyph-name="uni0295" unicode="&#x295;" horiz-adv-x="530" 
d="M196 0v252q-33 27 -60.5 54t-47.5 56t-31 62t-11 74q0 53 19.5 92.5t53 65.5t77.5 39t92 13q71 0 122.5 -25.5t87.5 -64.5l-84 -108q-22 26 -49 43t-57 17q-41 0 -65.5 -20t-24.5 -60q0 -22 7.5 -41.5t25 -40t46.5 -43.5t71 -51v-314h-172z" />
    <glyph glyph-name="uni0298" unicode="&#x298;" horiz-adv-x="568" 
d="M284 -12q-53 0 -97 23t-75.5 68t-49.5 113t-18 158q0 92 18 159.5t49.5 111.5t75.5 65.5t97 21.5q52 0 96.5 -21.5t76 -65.5t49.5 -111.5t18 -159.5q0 -90 -18 -158t-49.5 -113t-76 -68t-96.5 -23zM284 126q15 0 30 10t27 35.5t19.5 69t7.5 109.5q0 65 -7.5 107.5
t-19.5 67.5t-27 35t-30 10t-30 -10t-27 -35t-19.5 -67.5t-7.5 -107.5q0 -66 7.5 -109.5t19.5 -69t27 -35.5t30 -10zM284 282q-29 0 -49.5 20t-20.5 49t20.5 49t49.5 20t49.5 -20t20.5 -49t-20.5 -49t-49.5 -20z" />
    <glyph glyph-name="uni0299" unicode="&#x299;" horiz-adv-x="536" 
d="M58 0v500h220q42 0 80 -6.5t66.5 -22t45 -41t16.5 -64.5q0 -29 -19 -59t-65 -43v-4q48 -12 75 -39t27 -77q0 -39 -17 -66.5t-46.5 -44.5t-68 -25t-80.5 -8h-234zM226 310h45q27 0 39 10t12 28t-11.5 29t-40.5 11h-44v-78zM226 112h58q31 0 42.5 13t11.5 31q0 17 -12 29.5
t-42 12.5h-58v-86z" />
    <glyph glyph-name="uni029C" unicode="&#x29c;" horiz-adv-x="590" 
d="M60 0v500h172v-172h130v172h172v-500h-172v178h-130v-178h-172z" />
    <glyph glyph-name="uni029D" unicode="&#x29d;" horiz-adv-x="390" 
d="M328 -250q-26 66 -57 117q-25 -26 -60.5 -40.5t-82.5 -14.5q-39 0 -70 12.5t-52 34t-32.5 51t-11.5 64.5q0 66 43 106t119 40q19 0 36 -4v384h172v-474v-9t-1 -9q37 -38 70 -87.5t59 -112.5zM122 -58q38 0 38 52q-23 14 -38 14t-24.5 -8t-9.5 -22t8 -25t26 -11zM246 562
q-42 0 -69 24t-27 62t27 62t69 24t69 -24t27 -62t-27 -62t-69 -24z" />
    <glyph glyph-name="uni029F" unicode="&#x29f;" horiz-adv-x="440" 
d="M58 0v500h172v-366h184v-134h-356z" />
    <glyph glyph-name="uni02A1" unicode="&#x2a1;" horiz-adv-x="490" 
d="M138 0v180h-126v128l76 6h70q74 57 102 98.5t28 77.5q0 40 -22 60t-58 20q-33 0 -62.5 -17t-53.5 -43l-84 108q38 39 91.5 64.5t128.5 25.5q46 0 88.5 -13t74 -39t50.5 -65.5t19 -92.5q0 -52 -32 -96t-78 -88h124v-134h-164v-180h-172z" />
    <glyph glyph-name="uni02A2" unicode="&#x2a2;" horiz-adv-x="490" 
d="M180 0v180h-164v134h124q-23 22 -43 43.5t-35 44t-23.5 46.5t-8.5 50q0 53 19.5 92.5t53 65.5t77.5 39t92 13q71 0 122.5 -25.5t87.5 -64.5l-84 -108q-22 26 -49 43t-57 17q-41 0 -65.5 -20t-24.5 -60q0 -36 28 -77.5t102 -98.5h70l76 -6v-128h-126v-180h-172z" />
    <glyph glyph-name="h.sups" unicode="&#x2b0;" horiz-adv-x="391" 
d="M38 368v460h120v-108l-8 -58q17 17 42 31.5t59 14.5q57 0 81 -37.5t24 -100.5v-202h-120v188q0 27 -5.5 39.5t-26.5 12.5q-14 0 -24 -7t-22 -18v-215h-120z" />
    <glyph glyph-name="j.sups" unicode="&#x2b2;" horiz-adv-x="198" 
d="M28 236q-24 0 -38.5 2.5t-25.5 5.5l20 88q5 -2 11.5 -3t14.5 -1q17 0 23.5 10.5t6.5 37.5v324h120v-320q0 -28 -6.5 -54t-21.5 -46t-40.5 -32t-63.5 -12zM100 738q-29 0 -47.5 16t-18.5 42t18.5 42t47.5 16t47.5 -16t18.5 -42t-18.5 -42t-47.5 -16z" />
    <glyph glyph-name="r.sups" unicode="&#x2b3;" horiz-adv-x="284" 
d="M38 368v332h97l9 -58h2q20 35 45 50.5t49 15.5q17 0 27 -2.5t17 -5.5l-20 -102q-8 2 -17.5 4t-20.5 2q-18 0 -37 -12t-31 -42v-182h-120z" />
    <glyph glyph-name="w.sups" unicode="&#x2b7;" horiz-adv-x="537" 
d="M96 368l-80 332h118l24 -136l12 -102h3l17 102l34 136h94l36 -136l18 -102h3l13 102l24 136h109l-75 -332h-138l-24 112l-14 90h-2l-14 -90l-22 -112h-136z" />
    <glyph glyph-name="y.sups" unicode="&#x2b8;" horiz-adv-x="366" 
d="M90 248q-17 0 -28.5 1.5t-23.5 4.5l20 88q9 -3 13 -3.5t9 -0.5q23 0 35 9t17 23l4 12l-128 318h120l38 -124q8 -26 12 -47t10 -47h4q5 24 10.5 47t11.5 47l30 124h114l-110 -324q-14 -34 -28 -58t-32 -39.5t-42 -23t-56 -7.5z" />
    <glyph glyph-name="uni02B9" unicode="&#x2b9;" horiz-adv-x="320" 
d="M82 364l18 320h172l-26 -140l-52 -180h-112z" />
    <glyph glyph-name="uni02BB" unicode="&#x2bb;" horiz-adv-x="320" 
d="M160 304q-53 0 -79.5 38.5t-26.5 107.5q0 75 38 132.5t118 95.5l36 -74q-48 -21 -72 -51.5t-24 -75.5q3 1 10 1q36 0 61 -22t25 -60q0 -42 -24 -67t-62 -25z" />
    <glyph glyph-name="uni02BC" unicode="&#x2bc;" horiz-adv-x="320" 
d="M110 322l-36 74q48 21 72 51.5t24 75.5q-3 -1 -10 -1q-36 0 -61 22t-25 60q0 42 24 67t62 25q53 0 79.5 -38.5t26.5 -107.5q0 -75 -38 -132.5t-118 -95.5z" />
    <glyph glyph-name="uni02BE" unicode="&#x2be;" horiz-adv-x="180" 
d="M24 550v62q36 -2 50 11t14 33t-14 33t-50 11v62q78 3 112 -27.5t34 -78.5t-34 -78.5t-112 -27.5z" />
    <glyph glyph-name="uni02BF" unicode="&#x2bf;" horiz-adv-x="180" 
d="M156 550q-78 -3 -112 27.5t-34 78.5t34 78.5t112 27.5v-62q-36 2 -50 -11t-14 -33t14 -33t50 -11v-62z" />
    <glyph glyph-name="uni02C1" unicode="&#x2c1;" horiz-adv-x="358" 
d="M131 368v165q-22 18 -40.5 35.5t-31.5 37t-20.5 41t-7.5 48.5q0 35 13 61.5t35.5 44t52 26t62.5 8.5q48 0 83 -17t59 -43l-58 -74q-14 17 -32 28t-38 11q-26 0 -42 -12t-16 -38q0 -14 5 -26.5t16.5 -26t30.5 -28.5t48 -34v-207h-119z" />
    <glyph glyph-name="circumflex" unicode="&#x2c6;" horiz-adv-x="560" 
d="M86 618l106 128h176l106 -128l-64 -60l-128 84h-4l-128 -84z" />
    <glyph glyph-name="caron" unicode="&#x2c7;" horiz-adv-x="560" 
d="M192 578l-106 128l64 60l128 -84h4l128 84l64 -60l-106 -128h-176z" />
    <glyph glyph-name="uni02C8" unicode="&#x2c8;" horiz-adv-x="160" 
d="M18 542l-6 208h136l-6 -208h-124z" />
    <glyph glyph-name="uni02C9" unicode="&#x2c9;" horiz-adv-x="320" 
d="M6 588v108h308v-108h-308z" />
    <glyph glyph-name="uni02CA" unicode="&#x2ca;" horiz-adv-x="240" 
d="M140 572l-84 84l158 188l116 -114z" />
    <glyph glyph-name="uni02CB" unicode="&#x2cb;" horiz-adv-x="240" 
d="M100 572l-190 158l116 114l158 -188z" />
    <glyph glyph-name="uni02CC" unicode="&#x2cc;" horiz-adv-x="160" 
d="M12 -270l6 208h124l6 -208h-136z" />
    <glyph glyph-name="uni02D0" unicode="&#x2d0;" horiz-adv-x="320" 
d="M40 0l112 210h16l112 -210h-240zM152 290l-112 210h240l-112 -210h-16z" />
    <glyph glyph-name="uni02D1" unicode="&#x2d1;" horiz-adv-x="320" 
d="M152 290l-112 210h240l-112 -210h-16z" />
    <glyph glyph-name="breve" unicode="&#x2d8;" horiz-adv-x="560" 
d="M280 572q-88 0 -130 44.5t-44 115.5l96 16q5 -30 23.5 -50t54.5 -20t54.5 20t23.5 50l96 -16q-2 -71 -44 -115.5t-130 -44.5z" />
    <glyph glyph-name="dotaccent" unicode="&#x2d9;" horiz-adv-x="560" 
d="M280 562q-41 0 -66.5 24t-25.5 62t25.5 62t66.5 24t66.5 -24t25.5 -62t-25.5 -62t-66.5 -24z" />
    <glyph glyph-name="ring" unicode="&#x2da;" horiz-adv-x="560" 
d="M280 568q-71 0 -105.5 31t-34.5 75t34.5 75t105.5 31t105.5 -31t34.5 -75t-34.5 -75t-105.5 -31zM280 630q16 0 27 12t11 32t-11 32t-27 12t-27 -12t-11 -32t11 -32t27 -12z" />
    <glyph glyph-name="ogonek" unicode="&#x2db;" horiz-adv-x="560" 
d="M298 -212q-47 0 -79.5 23.5t-32.5 70.5q0 22 7.5 41.5t18.5 35t23 26.5t21 17h92q-26 -21 -37 -40t-11 -40q0 -18 12.5 -26t27.5 -8q9 0 18.5 3.5t15.5 8.5l34 -76q-21 -17 -52.5 -26.5t-57.5 -9.5z" />
    <glyph glyph-name="tilde" unicode="&#x2dc;" horiz-adv-x="560" 
d="M344 572q-23 0 -41.5 8.5t-33.5 19t-27 19.5t-22 9q-12 0 -19.5 -9.5t-10.5 -36.5l-106 6q2 85 37 121.5t95 36.5q22 0 41 -9t34 -19.5t27 -19t22 -8.5q12 0 19.5 9.5t10.5 36.5l106 -6q-2 -85 -37 -121.5t-95 -36.5z" />
    <glyph glyph-name="hungarumlaut" unicode="&#x2dd;" horiz-adv-x="560" 
d="M228 564l-90 40l88 184l114 -50zM418 564l-90 40l88 184l114 -50z" />
    <glyph glyph-name="uni02DE" unicode="&#x2de;" horiz-adv-x="204" 
d="M139 225q-37 0 -70.5 20t-54.5 77l-136 -60v122l204 88q7 -45 15.5 -74.5t17 -47t17.5 -24.5t18 -7q13 0 23 3t18 7l33 -79q-17 -11 -37.5 -18t-47.5 -7z" />
    <glyph glyph-name="uni02E0" unicode="&#x2e0;" horiz-adv-x="367" 
d="M187 233q-53 0 -85 28.5t-32 76.5q0 25 10 46.5t29 52.5l-101 262h119l35 -121q5 -21 11 -37.5t12 -39.5h3q6 23 12 39.5t12 37.5l34 121h114l-97 -260q20 -32 30 -53.5t10 -47.5q0 -48 -32 -76.5t-84 -28.5zM187 305q8 0 14.5 6.5t6.5 17.5q0 12 -4.5 25.5t-16.5 34.5
h-3q-10 -21 -14.5 -34.5t-4.5 -25.5q0 -11 6.5 -17.5t15.5 -6.5z" />
    <glyph glyph-name="l.sups" unicode="&#x2e1;" horiz-adv-x="202" 
d="M144 360q-60 0 -83 35.5t-23 92.5v340h120v-344q0 -17 5 -23.5t13 -6.5h5t7 2l14 -86q-11 -5 -24 -7.5t-34 -2.5z" />
    <glyph glyph-name="s.sups" unicode="&#x2e2;" horiz-adv-x="302" 
d="M143 360q-32 0 -67.5 12t-61.5 32l50 74q47 -32 82 -32q32 0 32 18q0 12 -19 18.5t-45 17.5q-15 6 -30 14.5t-27 20.5t-19.5 27.5t-7.5 36.5q0 49 37 79t97 30q42 0 71.5 -13.5t52.5 -30.5l-52 -70q-18 12 -35.5 20t-32.5 8q-28 0 -28 -18q0 -12 20 -18.5t44 -15.5
q14 -5 29 -13t27 -19.5t20 -28t8 -38.5q0 -48 -36.5 -79.5t-108.5 -31.5z" />
    <glyph glyph-name="x.sups" unicode="&#x2e3;" horiz-adv-x="364" 
d="M8 368l102 172l-96 160h128l22 -46l26 -50h4l18 50l16 46h124l-96 -174l100 -158h-126l-24 44l-30 50h-4l-22 -50l-18 -44h-124z" />
    <glyph glyph-name="uni0300" unicode="&#x300;" 
d="M-20 572l-190 158l116 114l158 -188z" />
    <glyph glyph-name="uni0301" unicode="&#x301;" 
d="M20 572l-84 84l158 188l116 -114z" />
    <glyph glyph-name="uni0302" unicode="&#x302;" 
d="M-194 618l106 128h176l106 -128l-64 -60l-128 84h-4l-128 -84z" />
    <glyph glyph-name="uni0303" unicode="&#x303;" 
d="M64 572q-23 0 -41.5 8.5t-33.5 19t-27 19.5t-22 9q-12 0 -19.5 -9.5t-10.5 -36.5l-106 6q2 85 37 121.5t95 36.5q22 0 41 -9t34 -19.5t27 -19t22 -8.5q12 0 19.5 9.5t10.5 36.5l106 -6q-2 -85 -37 -121.5t-95 -36.5z" />
    <glyph glyph-name="uni0304" unicode="&#x304;" 
d="M-154 588v108h308v-108h-308z" />
    <glyph glyph-name="uni0305" unicode="&#x305;" 
d="M-154 588v108h308v-108h-308z" />
    <glyph glyph-name="uni0306" unicode="&#x306;" 
d="M0 572q-88 0 -130 44.5t-44 115.5l96 16q5 -30 23.5 -50t54.5 -20t54.5 20t23.5 50l96 -16q-2 -71 -44 -115.5t-130 -44.5z" />
    <glyph glyph-name="uni0307" unicode="&#x307;" 
d="M0 562q-41 0 -66.5 24t-25.5 62t25.5 62t66.5 24t66.5 -24t25.5 -62t-25.5 -62t-66.5 -24z" />
    <glyph glyph-name="uni0308" unicode="&#x308;" 
d="M-114 562q-35 0 -57.5 23t-22.5 57t22.5 57t57.5 23t57.5 -23t22.5 -57t-22.5 -57t-57.5 -23zM114 562q-35 0 -57.5 23t-22.5 57t22.5 57t57.5 23t57.5 -23t22.5 -57t-22.5 -57t-57.5 -23z" />
    <glyph glyph-name="uni0309" unicode="&#x309;" 
d="M-48 566l-12 66q17 2 28.5 8.5t11.5 21.5q0 17 -17 27t-61 13l10 104q55 -2 91.5 -12t59 -27.5t32 -41t9.5 -51.5q0 -27 -12 -46.5t-33 -33t-48.5 -20.5t-58.5 -8z" />
    <glyph glyph-name="uni030A" unicode="&#x30a;" 
d="M0 568q-71 0 -105.5 31t-34.5 75t34.5 75t105.5 31t105.5 -31t34.5 -75t-34.5 -75t-105.5 -31zM0 630q16 0 27 12t11 32t-11 32t-27 12t-27 -12t-11 -32t11 -32t27 -12z" />
    <glyph glyph-name="uni030B" unicode="&#x30b;" 
d="M-52 564l-90 40l88 184l114 -50zM138 564l-90 40l88 184l114 -50z" />
    <glyph glyph-name="uni030C" unicode="&#x30c;" 
d="M-88 578l-106 128l64 60l128 -84h4l128 84l64 -60l-106 -128h-176z" />
    <glyph glyph-name="uni030F" unicode="&#x30f;" 
d="M-138 564l-112 174l114 50l88 -184zM52 564l-112 174l114 50l88 -184z" />
    <glyph glyph-name="uni0311" unicode="&#x311;" 
d="M-78 564l-96 16q1 35 11.5 64.5t32 50.5t54 33t76.5 12q88 0 130 -44.5t44 -115.5l-96 -16q-5 30 -23.5 50t-54.5 20t-54.5 -20t-23.5 -50z" />
    <glyph glyph-name="uni0312" unicode="&#x312;" 
d="M-2 594q-72 0 -72 88q0 45 26 79.5t80 54.5l24 -50q-28 -9 -44.5 -22t-20.5 -33q3 1 8 1q23 0 40 -15t17 -41q0 -29 -17 -45.5t-41 -16.5z" />
    <glyph glyph-name="uni0313" unicode="&#x313;" 
d="M-36 590l-24 50q28 9 44.5 22t20.5 33q-3 -1 -8 -1q-23 0 -40 15t-17 41q0 29 17 45.5t41 16.5q72 0 72 -88q0 -45 -26 -79.5t-80 -54.5z" />
    <glyph glyph-name="uni0318" unicode="&#x318;" 
d="M104 -260h-88v64h-108v80h108v64h88v-208z" />
    <glyph glyph-name="uni0319" unicode="&#x319;" 
d="M92 -196h-108v-64h-88v208h88v-64h108v-80z" />
    <glyph glyph-name="uni031A" unicode="&#x31a;" 
d="M104 574h-88v74h-108v80h196v-154z" />
    <glyph glyph-name="uni031B" unicode="&#x31b;" 
d="M2 424l-12 66q26 6 43 20t17 50q0 18 -5.5 33t-10.5 25l126 54q12 -15 22 -42.5t10 -57.5q0 -38 -15.5 -65t-41.5 -44.5t-60.5 -27t-72.5 -11.5z" />
    <glyph glyph-name="uni031C" unicode="&#x31c;" 
d="M66 -262q-78 -3 -112 27.5t-34 78.5t34 78.5t112 27.5v-62q-36 2 -50 -11t-14 -33t14 -33t50 -11v-62z" />
    <glyph glyph-name="uni031D" unicode="&#x31d;" 
d="M112 -236h-224v80h68v104h88v-104h68v-80z" />
    <glyph glyph-name="uni031E" unicode="&#x31e;" 
d="M112 -156h-68v-104h-88v104h-68v80h224v-80z" />
    <glyph glyph-name="uni031F" unicode="&#x31f;" 
d="M112 -196h-68v-64h-88v64h-68v80h68v64h88v-64h68v-80z" />
    <glyph glyph-name="uni0320" unicode="&#x320;" 
d="M-112 -196v80h224v-80h-224z" />
    <glyph glyph-name="uni0323" unicode="&#x323;" 
d="M0 -233q-41 0 -66.5 24t-25.5 62t25.5 62t66.5 24t66.5 -24t25.5 -62t-25.5 -62t-66.5 -24z" />
    <glyph glyph-name="uni0324" unicode="&#x324;" 
d="M-114 -223q-35 0 -57.5 23t-22.5 57t22.5 57t57.5 23t57.5 -23t22.5 -57t-22.5 -57t-57.5 -23zM114 -223q-35 0 -57.5 23t-22.5 57t22.5 57t57.5 23t57.5 -23t22.5 -57t-22.5 -57t-57.5 -23z" />
    <glyph glyph-name="uni0325" unicode="&#x325;" 
d="M0 -243q-71 0 -105.5 31t-34.5 75t34.5 75t105.5 31t105.5 -31t34.5 -75t-34.5 -75t-105.5 -31zM0 -181q16 0 27 12t11 32t-11 32t-27 12t-27 -12t-11 -32t11 -32t27 -12z" />
    <glyph glyph-name="uni0326" unicode="&#x326;" 
d="M-108 -244l-12 66q57 3 78.5 11t21.5 25q0 12 -13.5 20.5t-46.5 11.5l32 60q43 -3 71.5 -10t46 -17.5t25 -25t7.5 -33.5q0 -54 -55 -79.5t-155 -28.5z" />
    <glyph glyph-name="uni0327" unicode="&#x327;" 
d="M-108 -244l-12 66q57 3 78.5 12t21.5 30q0 13 -15 23.5t-61 16.5l50 100h98l-28 -64q39 -9 58.5 -26.5t19.5 -49.5q0 -54 -55 -79.5t-155 -28.5z" />
    <glyph glyph-name="uni0328" unicode="&#x328;" 
d="M18 -212q-47 0 -79.5 23.5t-32.5 70.5q0 22 7.5 41.5t18.5 35t23 26.5t21 17h92q-26 -21 -37 -40t-11 -40q0 -18 12.5 -26t27.5 -8q9 0 18.5 3.5t15.5 8.5l34 -76q-21 -17 -52.5 -26.5t-57.5 -9.5z" />
    <glyph glyph-name="uni0329" unicode="&#x329;" 
d="M-68 -270l6 208h124l6 -208h-136z" />
    <glyph glyph-name="uni032A" unicode="&#x32a;" 
d="M48 -218v62h-96v-62h-82v142h260v-142h-82z" />
    <glyph glyph-name="uni032C" unicode="&#x32c;" 
d="M-88 -225l-106 128l64 60l128 -84h4l128 84l64 -60l-106 -128h-176z" />
    <glyph glyph-name="uni032E" unicode="&#x32e;" 
d="M0 -233q-88 0 -130 44.5t-44 115.5l96 16q5 -30 23.5 -50t54.5 -20t54.5 20t23.5 50l96 -16q-2 -71 -44 -115.5t-130 -44.5z" />
    <glyph glyph-name="uni032F" unicode="&#x32f;" 
d="M-78 -249l-96 16q1 35 11.5 64.5t32 50.5t54 33t76.5 12q88 0 130 -44.5t44 -115.5l-96 -16q-5 30 -23.5 50t-54.5 20t-54.5 -20t-23.5 -50z" />
    <glyph glyph-name="uni0330" unicode="&#x330;" 
d="M64 -227q-23 0 -41.5 8.5t-33.5 19t-27 19.5t-22 9q-12 0 -19.5 -9.5t-10.5 -36.5l-106 6q2 85 37 121.5t95 36.5q22 0 41 -9t34 -19.5t27 -19t22 -8.5q12 0 19.5 9.5t10.5 36.5l106 -6q-2 -85 -37 -121.5t-95 -36.5z" />
    <glyph glyph-name="uni0331" unicode="&#x331;" 
d="M-154 -195v108h308v-108h-308z" />
    <glyph glyph-name="uni0334" unicode="&#x334;" 
d="M64 175q-23 0 -41.5 8.5t-33.5 19t-27 19.5t-22 9q-12 0 -19.5 -9.5t-10.5 -36.5l-106 6q2 85 37 121.5t95 36.5q22 0 41 -9t34 -19.5t27 -19t22 -8.5q12 0 19.5 9.5t10.5 36.5l106 -6q-2 -85 -37 -121.5t-95 -36.5z" />
    <glyph glyph-name="uni0339" unicode="&#x339;" 
d="M-66 -262v62q36 -2 50 11t14 33t-14 33t-50 11v62q78 3 112 -27.5t34 -78.5t-34 -78.5t-112 -27.5z" />
    <glyph glyph-name="uni033A" unicode="&#x33a;" 
d="M-130 -210v142h82v-62h96v62h82v-142h-260z" />
    <glyph glyph-name="uni033B" unicode="&#x33b;" 
d="M-130 -250v188h260v-188h-260zM-48 -190h96v70h-96v-70z" />
    <glyph glyph-name="uni033C" unicode="&#x33c;" 
d="M-195 -238q0 82 27.5 123t87.5 41q58 0 78 -52h4q10 26 30.5 39t47.5 13q61 0 88 -41t27 -123l-86 -12q0 43 -9 57t-26 14q-20 0 -27 -13.5t-7 -32.5v-23h-80v23q0 19 -7 32.5t-28 13.5q-17 0 -25.5 -14t-8.5 -57z" />
    <glyph glyph-name="uni033D" unicode="&#x33d;" 
d="M-51 535l-56 56l51 51l-51 51l56 56l51 -51l51 51l56 -56l-51 -51l51 -51l-56 -56l-51 51z" />
    <glyph glyph-name="uni0342" unicode="&#x342;" 
d="M64 572q-23 0 -41.5 8.5t-33.5 19t-27 19.5t-22 9q-12 0 -19.5 -9.5t-10.5 -36.5l-106 6q2 85 37 121.5t95 36.5q22 0 41 -9t34 -19.5t27 -19t22 -8.5q12 0 19.5 9.5t10.5 36.5l106 -6q-2 -85 -37 -121.5t-95 -36.5z" />
    <glyph glyph-name="uni0345" unicode="&#x345;" 
d="M58 -222q-35 0 -58.5 10t-38 29t-21 44.5t-6.5 57.5v29h122q-2 -11 -2 -20.5v-15.5q0 -20 11.5 -26.5t28.5 -6.5h7t8 1l16 -90q-11 -5 -27.5 -8.5t-39.5 -3.5z" />
    <glyph glyph-name="uni0361" unicode="&#x361;" 
d="M-414 530l-44 78q104 63 222 92.5t236 29.5t236 -29.5t222 -92.5l-44 -78q-49 27 -103 44.5t-108.5 28t-106.5 15t-96 4.5t-96 -4.5t-106.5 -15t-108.5 -28t-103 -44.5z" />
    <glyph glyph-name="uni0374" unicode="&#x374;" horiz-adv-x="320" 
d="M82 364l18 320h172l-26 -140l-52 -180h-112z" />
    <glyph glyph-name="uni0375" unicode="&#x375;" horiz-adv-x="320" 
d="M48 0l26 140l52 180h112l-18 -320h-172z" />
    <glyph glyph-name="uni037A" unicode="&#x37a;" horiz-adv-x="560" 
d="M338 -222q-35 0 -58.5 10t-38 29t-21 44.5t-6.5 57.5v29h122q-2 -11 -2 -20.5v-15.5q0 -20 11.5 -26.5t28.5 -6.5h7t8 1l16 -90q-11 -5 -27.5 -8.5t-39.5 -3.5z" />
    <glyph glyph-name="uni037E" unicode="&#x37e;" horiz-adv-x="320" 
d="M160 298q-44 0 -72 30t-28 74t28 74t72 30t72 -30t28 -74t-28 -74t-72 -30zM80 -204l-34 90q61 20 91.5 53t29.5 69h-7q-39 0 -69.5 24.5t-30.5 69.5q0 42 30 68t74 26q56 0 85 -41t29 -115q0 -89 -50 -153t-148 -91z" />
    <glyph glyph-name="tonos" unicode="&#x384;" horiz-adv-x="560" 
d="M218 574l30 228l166 -28l-82 -220z" />
    <glyph glyph-name="dieresistonos" unicode="&#x385;" horiz-adv-x="560" 
d="M224 584l34 228l116 -24l-76 -220zM140 580q-26 0 -44 16.5t-18 45.5t18 45.5t44 16.5t44 -16.5t18 -45.5t-18 -45.5t-44 -16.5zM420 580q-26 0 -44 16.5t-18 45.5t18 45.5t44 16.5t44 -16.5t18 -45.5t-18 -45.5t-44 -16.5z" />
    <glyph glyph-name="Alphatonos" unicode="&#x386;" horiz-adv-x="644" 
d="M300 316l-11 -45h120l-11 45q-12 47 -24 102t-24 104h-4q-11 -50 -22.5 -104.5t-23.5 -101.5zM50 0l198 650h208l198 -650h-182l-32 138h-182l-32 -138h-176zM-10 450l28 220l144 -20l-64 -220z" />
    <glyph glyph-name="anoteleia" unicode="&#x387;" horiz-adv-x="320" 
d="M160 298q-44 0 -72 30t-28 74t28 74t72 30t72 -30t28 -74t-28 -74t-72 -30z" />
    <glyph glyph-name="Epsilontonos" unicode="&#x388;" horiz-adv-x="696" 
d="M212 0v650h420v-144h-248v-102h212v-144h-212v-116h258v-144h-430zM-10 450l28 220l144 -20l-64 -220z" />
    <glyph glyph-name="Etatonos" unicode="&#x389;" horiz-adv-x="822" 
d="M212 0v650h172v-242h194v242h172v-650h-172v258h-194v-258h-172zM-10 450l28 220l144 -20l-64 -220z" />
    <glyph glyph-name="Iotatonos" unicode="&#x38a;" horiz-adv-x="456" 
d="M212 0v650h172v-650h-172zM-10 450l28 220l144 -20l-64 -220z" />
    <glyph glyph-name="Omicrontonos" unicode="&#x38c;" horiz-adv-x="802" 
d="M456 -12q-68 0 -123.5 23t-95 66.5t-61.5 107t-22 143.5t22 142.5t61.5 105t95 64.5t123.5 22q67 0 123 -22t95.5 -65t61.5 -105t22 -142t-22 -143.5t-61.5 -107t-95.5 -66.5t-123 -23zM456 136q59 0 92.5 51.5t33.5 140.5t-33.5 137.5t-92.5 48.5t-92.5 -48.5
t-33.5 -137.5t33.5 -140.5t92.5 -51.5zM-10 450l28 220l144 -20l-64 -220z" />
    <glyph glyph-name="Upsilontonos" unicode="&#x38e;" horiz-adv-x="744" 
d="M386 0v224l-196 426h184l48 -136q12 -37 24 -72t25 -73h4q13 38 25.5 73t25.5 72l48 136h180l-196 -426v-224h-172zM-10 450l28 220l144 -20l-64 -220z" />
    <glyph glyph-name="Omegatonos" unicode="&#x38f;" horiz-adv-x="834" 
d="M154 0v138h102v4q-14 15 -29.5 37t-28 50t-20.5 61t-8 70q0 67 22 123t61.5 95.5t95 61.5t123.5 22q67 0 123 -22t95.5 -61.5t61.5 -95.5t22 -123q0 -37 -8 -70t-20.5 -61t-28 -50t-29.5 -37v-4h102v-138h-280v124q48 48 68 100t20 118q0 77 -33.5 124.5t-92.5 47.5
t-92.5 -47.5t-33.5 -124.5q0 -66 20 -118t68 -100v-124h-280zM-19 450l28 220l144 -20l-64 -220z" />
    <glyph glyph-name="iotadieresistonos" unicode="&#x390;" horiz-adv-x="316" 
d="M218 -12q-47 0 -78 13.5t-49 38.5t-25.5 59.5t-7.5 76.5v324h174q-2 -41 -4 -88t-3.5 -92t-3 -84.5t-1.5 -65.5t10.5 -35t33.5 -9q6 0 15 1.5t17 4.5l20 -126q-18 -8 -40 -13t-58 -5zM88 584l34 228l116 -24l-76 -220zM4 580q-26 0 -44 16.5t-18 45.5t18 45.5t44 16.5
t44 -16.5t18 -45.5t-18 -45.5t-44 -16.5zM284 580q-26 0 -44 16.5t-18 45.5t18 45.5t44 16.5t44 -16.5t18 -45.5t-18 -45.5t-44 -16.5z" />
    <glyph glyph-name="Alpha" unicode="&#x391;" horiz-adv-x="584" 
d="M240 316l-11 -45h120l-11 45q-12 47 -24 102t-24 104h-4q-11 -50 -22.5 -104.5t-23.5 -101.5zM-10 0l198 650h208l198 -650h-182l-32 138h-182l-32 -138h-176z" />
    <glyph glyph-name="Beta" unicode="&#x392;" horiz-adv-x="612" 
d="M72 0v650h234q51 0 96 -7.5t78 -25.5t52.5 -49.5t19.5 -79.5q0 -21 -6 -42.5t-16.5 -41t-25.5 -34.5t-34 -22v-4q47 -14 79.5 -50.5t32.5 -101.5q0 -50 -20.5 -86.5t-55 -60t-81.5 -34.5t-99 -11h-254zM244 396h58q42 0 62 18t20 48t-20 43t-62 13h-58v-122zM244 132h70
q100 0 100 72q0 36 -24.5 51t-75.5 15h-70v-138z" />
    <glyph glyph-name="Gamma" unicode="&#x393;" horiz-adv-x="530" 
d="M72 0v650h424v-144h-252v-506h-172z" />
    <glyph glyph-name="uni0394" unicode="&#x394;" horiz-adv-x="660" 
d="M36 0v104l190 546h208l190 -546v-104h-588zM220 144h216l-56 190l-52 188h-4l-50 -188z" />
    <glyph glyph-name="Epsilon" unicode="&#x395;" horiz-adv-x="556" 
d="M72 0v650h420v-144h-248v-102h212v-144h-212v-116h258v-144h-430z" />
    <glyph glyph-name="Zeta" unicode="&#x396;" horiz-adv-x="542" 
d="M32 0v104l266 402h-240v144h452v-104l-266 -402h268v-144h-480z" />
    <glyph glyph-name="Eta" unicode="&#x397;" horiz-adv-x="682" 
d="M72 0v650h172v-242h194v242h172v-650h-172v258h-194v-258h-172z" />
    <glyph glyph-name="Theta" unicode="&#x398;" horiz-adv-x="692" 
d="M254 258v150h184v-150h-184zM346 -12q-68 0 -123.5 23t-95 66.5t-61.5 107t-22 143.5t22 142.5t61.5 105t95 64.5t123.5 22q67 0 123 -22t95.5 -65t61.5 -105t22 -142t-22 -143.5t-61.5 -107t-95.5 -66.5t-123 -23zM346 136q59 0 92.5 51.5t33.5 140.5t-33.5 137.5
t-92.5 48.5t-92.5 -48.5t-33.5 -137.5t33.5 -140.5t92.5 -51.5z" />
    <glyph glyph-name="Iota" unicode="&#x399;" horiz-adv-x="316" 
d="M72 0v650h172v-650h-172z" />
    <glyph glyph-name="Kappa" unicode="&#x39a;" horiz-adv-x="628" 
d="M72 0v650h172v-242h4l164 242h188l-194 -264l232 -386h-188l-144 250l-62 -88v-162h-172z" />
    <glyph glyph-name="Lambda" unicode="&#x39b;" horiz-adv-x="572" 
d="M-10 0l192 650h208l192 -650h-182l-68 284q-14 52 -24 102.5t-24 103.5h-4q-14 -53 -24.5 -103.5t-23.5 -102.5l-66 -284h-176z" />
    <glyph glyph-name="Mu" unicode="&#x39c;" horiz-adv-x="776" 
d="M72 0v650h184l98 -266q9 -27 17 -56t17 -58h4q9 29 17 58t17 56l94 266h184v-650h-156v192q0 25 2.5 55t5.5 61.5t7 61.5t7 54h-4l-54 -156l-80 -215h-92l-80 215l-52 156h-4q3 -24 7 -54t7 -61.5t5.5 -61.5t2.5 -55v-192h-154z" />
    <glyph glyph-name="Nu" unicode="&#x39d;" horiz-adv-x="672" 
d="M72 0v650h176l144 -290l62 -146h4q-3 26 -7 57t-7 63.5t-5.5 65t-2.5 62.5v188h164v-650h-176l-144 291l-62 145h-4q6 -56 14 -122t8 -126v-188h-164z" />
    <glyph glyph-name="Xi" unicode="&#x39e;" horiz-adv-x="586" 
d="M54 0v144h478v-144h-478zM120 260v144h346v-144h-346zM64 506v144h458v-144h-458z" />
    <glyph glyph-name="Omicron" unicode="&#x39f;" horiz-adv-x="692" 
d="M346 -12q-68 0 -123.5 23t-95 66.5t-61.5 107t-22 143.5t22 142.5t61.5 105t95 64.5t123.5 22q67 0 123 -22t95.5 -65t61.5 -105t22 -142t-22 -143.5t-61.5 -107t-95.5 -66.5t-123 -23zM346 136q59 0 92.5 51.5t33.5 140.5t-33.5 137.5t-92.5 48.5t-92.5 -48.5
t-33.5 -137.5t33.5 -140.5t92.5 -51.5z" />
    <glyph glyph-name="Pi" unicode="&#x3a0;" horiz-adv-x="670" 
d="M72 0v650h526v-650h-172v506h-182v-506h-172z" />
    <glyph glyph-name="Rho" unicode="&#x3a1;" horiz-adv-x="608" 
d="M72 0v650h238q53 0 101 -10.5t84 -36t57.5 -67t21.5 -102.5q0 -60 -21.5 -103t-57.5 -70.5t-83 -41t-98 -13.5h-70v-206h-172zM244 342h62q51 0 75.5 24t24.5 68t-27 62t-77 18h-58v-172z" />
    <glyph glyph-name="Sigma" unicode="&#x3a3;" horiz-adv-x="554" 
d="M36 0v104l192 224l-190 218v104h456v-144h-242l148 -174l-150 -188h270v-144h-484z" />
    <glyph glyph-name="Tau" unicode="&#x3a4;" horiz-adv-x="564" 
d="M196 0v506h-172v144h516v-144h-172v-506h-172z" />
    <glyph glyph-name="Upsilon" unicode="&#x3a5;" horiz-adv-x="544" 
d="M186 0v224l-196 426h184l48 -136q12 -37 24 -72t25 -73h4q13 38 25.5 73t25.5 72l48 136h180l-196 -426v-224h-172z" />
    <glyph glyph-name="Phi" unicode="&#x3a6;" horiz-adv-x="776" 
d="M566 328q0 54 -27.5 87.5t-74.5 44.5v-268q47 11 74.5 46.5t27.5 89.5zM210 328q0 -54 27.5 -89.5t74.5 -46.5v268q-47 -11 -74.5 -44.5t-27.5 -87.5zM312 -22v84q-60 6 -108.5 26t-83 53.5t-53.5 80.5t-19 106t19 105.5t53.5 79.5t83 52t108.5 25v82h152v-82
q60 -6 108.5 -25t83 -52t53.5 -79.5t19 -105.5t-19 -106t-53.5 -80.5t-83 -53.5t-108.5 -26v-84h-152z" />
    <glyph glyph-name="Chi" unicode="&#x3a7;" horiz-adv-x="588" 
d="M10 0l176 334l-166 316h192l44 -106q11 -23 21.5 -49.5t24.5 -58.5h4q11 32 21 58.5t19 49.5l38 106h184l-166 -324l176 -326h-192l-52 116q-12 26 -23 52t-23 56h-4q-11 -30 -21 -56t-21 -52l-48 -116h-184z" />
    <glyph glyph-name="Psi" unicode="&#x3a8;" horiz-adv-x="772" 
d="M306 0v210q-60 5 -108 23.5t-81 52.5t-51 84.5t-18 119.5v160h168v-150q0 -40 6 -67.5t17.5 -46t28 -28t38.5 -13.5v305h160v-305q22 4 38.5 13.5t28 28t17.5 46t6 67.5v150h168v-160q0 -69 -18 -119.5t-51 -84.5t-81 -52.5t-108 -23.5v-210h-160z" />
    <glyph glyph-name="uni03A9" unicode="&#x3a9;" horiz-adv-x="724" 
d="M44 0v138h102v4q-14 15 -29.5 37t-28 50t-20.5 61t-8 70q0 67 22 123t61.5 95.5t95 61.5t123.5 22q67 0 123 -22t95.5 -61.5t61.5 -95.5t22 -123q0 -37 -8 -70t-20.5 -61t-28 -50t-29.5 -37v-4h102v-138h-280v124q48 48 68 100t20 118q0 77 -33.5 124.5t-92.5 47.5
t-92.5 -47.5t-33.5 -124.5q0 -66 20 -118t68 -100v-124h-280z" />
    <glyph glyph-name="Iotadieresis" unicode="&#x3aa;" horiz-adv-x="316" 
d="M72 0v650h172v-650h-172zM44 694q-35 0 -56.5 22.5t-21.5 55.5t21.5 55.5t56.5 22.5t56.5 -22.5t21.5 -55.5t-21.5 -55.5t-56.5 -22.5zM272 694q-35 0 -56.5 22.5t-21.5 55.5t21.5 55.5t56.5 22.5t56.5 -22.5t21.5 -55.5t-21.5 -55.5t-56.5 -22.5z" />
    <glyph glyph-name="Upsilondieresis" unicode="&#x3ab;" horiz-adv-x="544" 
d="M186 0v224l-196 426h184l48 -136q12 -37 24 -72t25 -73h4q13 38 25.5 73t25.5 72l48 136h180l-196 -426v-224h-172zM158 694q-35 0 -56.5 22.5t-21.5 55.5t21.5 55.5t56.5 22.5t56.5 -22.5t21.5 -55.5t-21.5 -55.5t-56.5 -22.5zM386 694q-35 0 -56.5 22.5t-21.5 55.5
t21.5 55.5t56.5 22.5t56.5 -22.5t21.5 -55.5t-21.5 -55.5t-56.5 -22.5z" />
    <glyph glyph-name="alphatonos" unicode="&#x3ac;" horiz-adv-x="608" 
d="M236 -12q-47 0 -84.5 18t-64 52t-41 82.5t-14.5 109.5t18.5 110t49 82.5t70.5 51.5t84 18q41 0 73.5 -20.5t58.5 -67.5h4l14 76h170q-10 -41 -21.5 -88t-21.5 -92t-16.5 -84.5t-6.5 -65.5t13.5 -35t34.5 -9q14 0 32 6l20 -126q-15 -8 -39 -13t-57 -5q-56 0 -89 16t-51 60
h-4q-47 -76 -132 -76zM278 128q27 0 49.5 26t24.5 64l6 84q-14 30 -30.5 50t-45.5 20q-14 0 -27 -6.5t-23.5 -20.5t-17 -37t-6.5 -56q0 -68 19 -96t51 -28zM235 574l30 228l166 -28l-82 -220z" />
    <glyph glyph-name="epsilontonos" unicode="&#x3ad;" horiz-adv-x="480" 
d="M274 -12q-49 0 -93 9.5t-77 29t-52.5 48.5t-19.5 69q0 50 24.5 77t70.5 39v4q-19 6 -33 17.5t-23.5 25.5t-14 29.5t-4.5 29.5q0 39 18.5 66.5t49.5 45t71.5 26t84.5 8.5q45 0 91.5 -13t84.5 -37l-62 -110q-23 15 -50.5 22.5t-53.5 7.5q-32 0 -49 -11.5t-17 -28.5
q0 -18 14 -25t40 -7q17 0 36.5 1t36.5 3v-120q-22 2 -45 3t-44 1q-31 0 -44.5 -7.5t-13.5 -28.5q0 -44 91 -44q19 0 47.5 7t55.5 27l66 -108q-50 -35 -95 -45.5t-91 -10.5zM204 574l30 228l166 -28l-82 -220z" />
    <glyph glyph-name="etatonos" unicode="&#x3ae;" horiz-adv-x="570" 
d="M342 -176q2 58 4.5 122.5t4 127t2.5 118t1 94.5q0 48 -10.5 64t-39.5 16q-21 0 -38.5 -15.5t-35.5 -42.5v-308h-172v340q0 30 -2 74t-10 86h152l12 -80h4q30 36 65.5 64t86.5 28q41 0 69.5 -14.5t46.5 -41t26 -64.5t8 -84v-484h-174zM250 574l30 228l166 -28l-82 -220z
" />
    <glyph glyph-name="iotatonos" unicode="&#x3af;" horiz-adv-x="316" 
d="M218 -12q-47 0 -78 13.5t-49 38.5t-25.5 59.5t-7.5 76.5v324h174q-2 -41 -4 -88t-3.5 -92t-3 -84.5t-1.5 -65.5t10.5 -35t33.5 -9q6 0 15 1.5t17 4.5l20 -126q-18 -8 -40 -13t-58 -5zM82 574l30 228l166 -28l-82 -220z" />
    <glyph glyph-name="upsilondieresistonos" unicode="&#x3b0;" horiz-adv-x="540" 
d="M264 -12q-60 0 -102 17t-68 46.5t-38 69.5t-12 86q0 33 2 66.5t2 66.5q0 30 -2 74t-10 86h166q6 -26 8 -58t2 -68q0 -14 -1 -34.5t-2 -44.5t-2 -51t-1 -52q0 -30 16 -48t42 -18q35 0 50.5 31.5t15.5 100.5q0 45 -6.5 97.5t-23.5 120.5l166 36q15 -59 25.5 -121.5
t10.5 -123.5q0 -64 -14.5 -115.5t-44.5 -88t-74.5 -56t-104.5 -19.5zM214 584l34 228l116 -24l-76 -220zM130 580q-26 0 -44 16.5t-18 45.5t18 45.5t44 16.5t44 -16.5t18 -45.5t-18 -45.5t-44 -16.5zM410 580q-26 0 -44 16.5t-18 45.5t18 45.5t44 16.5t44 -16.5t18 -45.5
t-18 -45.5t-44 -16.5z" />
    <glyph glyph-name="alpha" unicode="&#x3b1;" horiz-adv-x="608" 
d="M236 -12q-47 0 -84.5 18t-64 52t-41 82.5t-14.5 109.5t18.5 110t49 82.5t70.5 51.5t84 18q41 0 73.5 -20.5t58.5 -67.5h4l14 76h170q-10 -41 -21.5 -88t-21.5 -92t-16.5 -84.5t-6.5 -65.5t13.5 -35t34.5 -9q14 0 32 6l20 -126q-15 -8 -39 -13t-57 -5q-56 0 -89 16t-51 60
h-4q-47 -76 -132 -76zM278 128q27 0 49.5 26t24.5 64l6 84q-14 30 -30.5 50t-45.5 20q-14 0 -27 -6.5t-23.5 -20.5t-17 -37t-6.5 -56q0 -68 19 -96t51 -28z" />
    <glyph glyph-name="beta" unicode="&#x3b2;" horiz-adv-x="614" 
d="M58 -176v632q0 53 14.5 99t44.5 80t76 53.5t109 19.5q43 0 84.5 -11t74 -33.5t52 -57.5t19.5 -83q0 -49 -20 -84t-58 -59v-4q25 -6 48.5 -21.5t41 -38t28 -51.5t10.5 -63q0 -57 -18 -97.5t-47 -66.5t-65 -38t-72 -12q-39 0 -80.5 12.5t-79.5 51.5q6 -117 12 -228h-174z
M328 128q35 0 60.5 20t25.5 66q0 32 -19 55t-57 23q-21 0 -36 -6l-20 124q50 6 68 31.5t18 64.5q0 35 -20 51.5t-46 16.5q-39 0 -57.5 -35t-20.5 -91q-6 -134 -6 -265q13 -17 27 -28t28.5 -17t28 -8t26.5 -2z" />
    <glyph glyph-name="gamma" unicode="&#x3b3;" horiz-adv-x="552" 
d="M180 -176q2 15 3.5 28.5t2.5 29.5t1.5 36t0.5 48q0 42 -14.5 104.5t-40 133t-61 142t-76.5 130.5l176 36q14 -23 29.5 -56t31.5 -74.5t31.5 -89.5t29.5 -99h4q35 72 49 146.5t19 160.5h170q-11 -64 -24 -119t-34 -111t-53 -117t-81 -137q9 -48 11.5 -99t2.5 -93h-178z
" />
    <glyph glyph-name="delta" unicode="&#x3b4;" horiz-adv-x="554" 
d="M274 -12q-50 0 -93 15.5t-75.5 45.5t-51 72.5t-18.5 96.5q0 37 11.5 67.5t30.5 55t44.5 43t53.5 32.5q-38 29 -66 69.5t-28 96.5q0 25 11.5 48t35 40.5t59.5 27.5t84 10q57 0 116.5 -11.5t107.5 -27.5l-38 -126q-48 16 -97 27.5t-89 11.5q-32 0 -32 -18q0 -11 11.5 -22.5
t30.5 -25t44 -30t52 -36.5q34 -25 60 -48.5t44 -50t27 -57.5t9 -70q0 -53 -17 -96t-48.5 -74.5t-76.5 -48.5t-102 -17zM278 126q30 0 52 21.5t22 78.5q0 36 -18.5 63.5t-47.5 50.5q-40 -11 -64 -40t-24 -80q0 -48 23.5 -71t56.5 -23z" />
    <glyph glyph-name="epsilon" unicode="&#x3b5;" horiz-adv-x="480" 
d="M274 -12q-49 0 -93 9.5t-77 29t-52.5 48.5t-19.5 69q0 50 24.5 77t70.5 39v4q-19 6 -33 17.5t-23.5 25.5t-14 29.5t-4.5 29.5q0 39 18.5 66.5t49.5 45t71.5 26t84.5 8.5q45 0 91.5 -13t84.5 -37l-62 -110q-23 15 -50.5 22.5t-53.5 7.5q-32 0 -49 -11.5t-17 -28.5
q0 -18 14 -25t40 -7q17 0 36.5 1t36.5 3v-120q-22 2 -45 3t-44 1q-31 0 -44.5 -7.5t-13.5 -28.5q0 -44 91 -44q19 0 47.5 7t55.5 27l66 -108q-50 -35 -95 -45.5t-91 -10.5z" />
    <glyph glyph-name="zeta" unicode="&#x3b6;" horiz-adv-x="482" 
d="M400 -188l-134 42q20 27 33 47t13 39t-19 29.5t-71 22.5q-34 7 -67 22t-59 42t-42 69.5t-16 104.5q0 78 58 168t168 174q-14 -1 -37.5 -1.5t-51 -2t-55.5 -3t-50 -3.5v134h382v-134h-6q-50 -29 -92.5 -70.5t-73.5 -86.5t-48.5 -89t-17.5 -76q0 -26 4 -44t16 -31.5
t33 -22.5t55 -16q77 -16 108.5 -47t31.5 -91q0 -27 -14.5 -76t-47.5 -100z" />
    <glyph glyph-name="eta" unicode="&#x3b7;" horiz-adv-x="570" 
d="M342 -176q2 58 4.5 122.5t4 127t2.5 118t1 94.5q0 48 -10.5 64t-39.5 16q-21 0 -38.5 -15.5t-35.5 -42.5v-308h-172v340q0 30 -2 74t-10 86h152l12 -80h4q30 36 65.5 64t86.5 28q41 0 69.5 -14.5t46.5 -41t26 -64.5t8 -84v-484h-174z" />
    <glyph glyph-name="theta" unicode="&#x3b8;" horiz-adv-x="560" 
d="M280 -12q-53 0 -96 23t-74.5 68t-48.5 113t-17 158q0 92 17 159.5t48.5 111.5t74.5 65.5t96 21.5q52 0 95.5 -21.5t75 -65.5t48.5 -111.5t17 -159.5q0 -90 -17 -158t-48.5 -113t-75 -68t-95.5 -23zM280 570q-13 0 -24.5 -5.5t-20.5 -23t-15.5 -49.5t-8.5 -86h138
q-2 54 -8.5 86t-15.5 49.5t-20.5 23t-24.5 5.5zM280 126q13 0 24.5 7t20.5 25.5t15.5 51t8.5 84.5h-138q2 -52 8.5 -84.5t15.5 -51t20.5 -25.5t24.5 -7z" />
    <glyph glyph-name="iota" unicode="&#x3b9;" horiz-adv-x="316" 
d="M218 -12q-47 0 -78 13.5t-49 38.5t-25.5 59.5t-7.5 76.5v324h174q-2 -41 -4 -88t-3.5 -92t-3 -84.5t-1.5 -65.5t10.5 -35t33.5 -9q6 0 15 1.5t17 4.5l20 -126q-18 -8 -40 -13t-58 -5z" />
    <glyph glyph-name="kappa" unicode="&#x3ba;" horiz-adv-x="566" 
d="M378 -12q-26 35 -53.5 82.5t-59.5 114.5q-24 -27 -34.5 -63t-10.5 -91v-31h-162v340q0 30 -2 74t-10 86h170q6 -26 8 -58t2 -68v-70h4q27 40 56.5 76t63 64t72 45.5t83.5 22.5l13 -160q-19 -3 -35.5 -8t-33 -12.5t-34 -18.5t-36.5 -26q19 -36 42.5 -75.5t49 -78t51.5 -73
t50 -60.5z" />
    <glyph glyph-name="lambda" unicode="&#x3bb;" horiz-adv-x="574" 
d="M198 -12l-186 12l214 498l-2 12q-5 27 -29 40.5t-51 13.5q-24 0 -40 -4t-34 -12l-36 138q13 5 26 9t28 7t33 4.5t43 1.5q46 0 82 -11.5t64.5 -37t50 -65t37.5 -94.5l174 -500h-186l-82 308h-4z" />
    <glyph glyph-name="uni03BC" unicode="&#x3bc;" horiz-adv-x="606" 
d="M58 -176v676h172v-286q0 -48 12 -64t38 -16q23 0 38.5 13.5t29.5 40.5v312h174q-2 -41 -4 -88t-3.5 -92t-3 -84.5t-1.5 -65.5t12.5 -35t35.5 -9q6 0 15 1.5t17 4.5l20 -126q-18 -8 -40 -13t-58 -5q-56 0 -92.5 20t-51.5 58h-4q-15 -35 -39.5 -53.5t-54.5 -18.5
q-14 0 -26.5 2.5t-23.5 11.5q2 -49 4 -91.5t8 -92.5h-174z" />
    <glyph glyph-name="nu" unicode="&#x3bd;" horiz-adv-x="542" 
d="M178 0q-10 70 -28.5 136t-43 126.5t-53 114.5t-57.5 99l176 36q18 -32 36 -75t33.5 -89.5t27.5 -91.5t18 -81h4q34 81 46.5 162.5t18.5 162.5h170q-12 -67 -26.5 -127t-35.5 -119.5t-51 -121.5t-73 -132h-162z" />
    <glyph glyph-name="xi" unicode="&#x3be;" horiz-adv-x="484" 
d="M402 -188l-134 42q20 27 33 47t13 39t-19 29.5t-71 22.5q-38 9 -71.5 22.5t-58.5 35.5t-39.5 54.5t-14.5 79.5q0 31 10.5 58.5t28.5 50.5t41.5 40t50.5 27v4q-43 17 -65 51.5t-22 76.5q0 20 9 42.5t27 37.5q-24 -2 -46.5 -3.5t-61.5 -6.5v134h442v-134h-119
q-38 0 -58.5 -20.5t-20.5 -55.5q0 -14 4 -28t13 -25t22.5 -18t32.5 -7q22 0 38.5 2t37.5 8v-132q-24 6 -44.5 8t-41.5 2q-46 0 -74 -24t-28 -60q0 -22 6 -35.5t20 -22.5t36.5 -15.5t55.5 -12.5q41 -8 66.5 -19.5t39.5 -28t19 -38.5t5 -52q0 -27 -14.5 -76t-47.5 -100z" />
    <glyph glyph-name="omicron" unicode="&#x3bf;" horiz-adv-x="560" 
d="M280 -12q-48 0 -93 17.5t-79.5 51t-55 82.5t-20.5 111t20.5 111t55 82.5t79.5 51t93 17.5t92.5 -17.5t79 -51t55.5 -82.5t21 -111t-21 -111t-55.5 -82.5t-79 -51t-92.5 -17.5zM280 126q39 0 55.5 33.5t16.5 90.5t-16.5 90.5t-55.5 33.5t-55.5 -33.5t-16.5 -90.5
t16.5 -90.5t55.5 -33.5z" />
    <glyph glyph-name="pi" unicode="&#x3c0;" horiz-adv-x="654" 
d="M536 -12q-47 0 -78 13.5t-50.5 38.5t-27.5 59.5t-8 76.5q0 8 0.5 28.5t1.5 47t1.5 56.5t0.5 58h-93q0 -85 -7.5 -182t-17.5 -194l-172 10q19 100 27.5 194.5t8.5 171.5h-106v128l76 6h540v-134h-92q-2 -29 -3.5 -61.5t-2 -60.5t-0.5 -48.5v-25.5q0 -26 11.5 -35t32.5 -9
q8 0 17 1t19 3l20 -126q-15 -6 -41 -11t-57 -5z" />
    <glyph glyph-name="rho" unicode="&#x3c1;" horiz-adv-x="576" 
d="M54 -176v409q0 73 18.5 126t51.5 87t78 50t98 16q112 0 176 -66t64 -188q0 -65 -17.5 -115t-46.5 -84.5t-66.5 -52.5t-77.5 -18q-29 0 -60.5 10.5t-55.5 39.5q3 -54 6 -108.5t6 -105.5h-174zM290 128q30 0 52 28t22 100q0 62 -17.5 89t-52.5 27q-36 0 -57 -33.5
t-21 -86.5v-94q18 -18 36.5 -24t37.5 -6z" />
    <glyph glyph-name="uni03C2" unicode="&#x3c2;" horiz-adv-x="452" 
d="M361 -188l-135 42q20 27 34 48.5t14 39.5q0 24 -12 38.5t-38 23.5q-35 12 -69 29.5t-61.5 46.5t-44.5 72t-17 106q0 60 21 107t56 80t82 50t99 17q46 0 84.5 -14t65.5 -38l-80 -110q-17 14 -30.5 19t-27.5 5q-46 0 -70 -31.5t-24 -84.5q0 -26 5 -44.5t15.5 -31.5
t26.5 -22.5t39 -17.5q37 -14 62 -27t40 -30.5t21.5 -40.5t6.5 -56q0 -27 -14.5 -76t-48.5 -100z" />
    <glyph glyph-name="sigma" unicode="&#x3c3;" horiz-adv-x="584" 
d="M274 -12q-50 0 -94 16.5t-77 49t-52 80.5t-19 110q0 64 21 112.5t56 80t80 47.5t93 16h290v-140q-20 2 -36.5 4t-32.5 3.5t-32 2.5t-35 2v-4q35 -20 53 -60t18 -92q0 -53 -17 -95t-48 -71.5t-73.5 -45.5t-94.5 -16zM276 126q33 0 50.5 27.5t17.5 80.5q0 27 -4.5 50
t-13 40.5t-21.5 27.5t-29 10q-33 0 -50.5 -26.5t-17.5 -91.5q0 -57 17.5 -87.5t50.5 -30.5z" />
    <glyph glyph-name="tau" unicode="&#x3c4;" horiz-adv-x="504" 
d="M320 -12q-44 0 -73.5 13.5t-47.5 38.5t-25.5 59.5t-7.5 76.5v190h-140v128l76 6h376v-134h-144q-3 -57 -4.5 -110t-1.5 -86q0 -26 10.5 -35t27.5 -9q14 0 27 1.5t31 6.5l22 -128q-27 -8 -58.5 -13t-67.5 -5z" />
    <glyph glyph-name="upsilon" unicode="&#x3c5;" horiz-adv-x="540" 
d="M264 -12q-60 0 -102 17t-68 46.5t-38 69.5t-12 86q0 33 2 66.5t2 66.5q0 30 -2 74t-10 86h166q6 -26 8 -58t2 -68q0 -14 -1 -34.5t-2 -44.5t-2 -51t-1 -52q0 -30 16 -48t42 -18q35 0 50.5 31.5t15.5 100.5q0 45 -6.5 97.5t-23.5 120.5l166 36q15 -59 25.5 -121.5
t10.5 -123.5q0 -64 -14.5 -115.5t-44.5 -88t-74.5 -56t-104.5 -19.5z" />
    <glyph glyph-name="phi" unicode="&#x3c6;" horiz-adv-x="760" 
d="M208 250q0 -63 24.5 -94.5t69.5 -35.5v260q-45 -4 -69.5 -35.5t-24.5 -94.5zM552 250q0 63 -24.5 94.5t-69.5 35.5v-260q45 4 69.5 35.5t24.5 94.5zM302 -176v169q-53 3 -101.5 21t-86 50.5t-60 79t-22.5 106.5t22.5 106.5t60 79t86 50.5t101.5 21v123h156v-123
q53 -3 101.5 -21t86 -50.5t60 -79t22.5 -106.5t-22.5 -106.5t-60 -79t-86 -50.5t-101.5 -21v-169h-156z" />
    <glyph glyph-name="chi" unicode="&#x3c7;" horiz-adv-x="544" 
d="M186 -188l-178 12l187 342l-189 310l170 36l102 -196h4l74 184h178l-170 -330l196 -322l-170 -36l-108 218h-4z" />
    <glyph glyph-name="psi" unicode="&#x3c8;" horiz-adv-x="776" 
d="M308 -176v164q-74 2 -123.5 23.5t-79.5 57t-42.5 80.5t-12.5 94v97q0 30 -2 74t-10 86h166q6 -26 8 -58t2 -68q0 -14 -0.5 -32.5t-0.5 -39t-0.5 -40t-0.5 -34.5q0 -19 4 -38t14.5 -34t29.5 -24.5t48 -9.5v508h156v-508q25 1 43.5 8.5t30.5 25.5t18 48t6 74q0 42 -6.5 90
t-23.5 108l166 36q17 -53 26.5 -110.5t9.5 -114.5q0 -146 -68 -222.5t-202 -76.5v-164h-156z" />
    <glyph glyph-name="omega" unicode="&#x3c9;" horiz-adv-x="764" 
d="M240 -12q-97 0 -150.5 70.5t-53.5 203.5q0 28 5.5 60.5t15 66t22.5 65.5t29 58l162 -60q-35 -60 -53.5 -114t-18.5 -110q0 -44 10.5 -73t39.5 -29q30 0 43 21.5t13 60.5q0 18 -1 32.5t-3 29t-4.5 31t-5.5 39.5h180q-3 -23 -5.5 -39.5t-4.5 -31t-3 -29t-1 -32.5
q0 -45 10.5 -63.5t39.5 -18.5q23 0 36.5 33.5t13.5 94.5q0 27 -2.5 51t-9 48t-18 49t-28.5 54l158 56q32 -53 52 -112.5t20 -133.5q0 -131 -50 -204.5t-148 -73.5q-45 0 -86 21t-62 75h-4q-21 -54 -57 -75t-81 -21z" />
    <glyph glyph-name="iotadieresis" unicode="&#x3ca;" horiz-adv-x="316" 
d="M218 -12q-47 0 -78 13.5t-49 38.5t-25.5 59.5t-7.5 76.5v324h174q-2 -41 -4 -88t-3.5 -92t-3 -84.5t-1.5 -65.5t10.5 -35t33.5 -9q6 0 15 1.5t17 4.5l20 -126q-18 -8 -40 -13t-58 -5zM30 562q-35 0 -57.5 23t-22.5 57t22.5 57t57.5 23t57.5 -23t22.5 -57t-22.5 -57
t-57.5 -23zM258 562q-35 0 -57.5 23t-22.5 57t22.5 57t57.5 23t57.5 -23t22.5 -57t-22.5 -57t-57.5 -23z" />
    <glyph glyph-name="upsilondieresis" unicode="&#x3cb;" horiz-adv-x="540" 
d="M264 -12q-60 0 -102 17t-68 46.5t-38 69.5t-12 86q0 33 2 66.5t2 66.5q0 30 -2 74t-10 86h166q6 -26 8 -58t2 -68q0 -14 -1 -34.5t-2 -44.5t-2 -51t-1 -52q0 -30 16 -48t42 -18q35 0 50.5 31.5t15.5 100.5q0 45 -6.5 97.5t-23.5 120.5l166 36q15 -59 25.5 -121.5
t10.5 -123.5q0 -64 -14.5 -115.5t-44.5 -88t-74.5 -56t-104.5 -19.5zM156 562q-35 0 -57.5 23t-22.5 57t22.5 57t57.5 23t57.5 -23t22.5 -57t-22.5 -57t-57.5 -23zM384 562q-35 0 -57.5 23t-22.5 57t22.5 57t57.5 23t57.5 -23t22.5 -57t-22.5 -57t-57.5 -23z" />
    <glyph glyph-name="omicrontonos" unicode="&#x3cc;" horiz-adv-x="560" 
d="M280 -12q-48 0 -93 17.5t-79.5 51t-55 82.5t-20.5 111t20.5 111t55 82.5t79.5 51t93 17.5t92.5 -17.5t79 -51t55.5 -82.5t21 -111t-21 -111t-55.5 -82.5t-79 -51t-92.5 -17.5zM280 126q39 0 55.5 33.5t16.5 90.5t-16.5 90.5t-55.5 33.5t-55.5 -33.5t-16.5 -90.5
t16.5 -90.5t55.5 -33.5zM222 574l30 228l166 -28l-82 -220z" />
    <glyph glyph-name="upsilontonos" unicode="&#x3cd;" horiz-adv-x="540" 
d="M264 -12q-60 0 -102 17t-68 46.5t-38 69.5t-12 86q0 33 2 66.5t2 66.5q0 30 -2 74t-10 86h166q6 -26 8 -58t2 -68q0 -14 -1 -34.5t-2 -44.5t-2 -51t-1 -52q0 -30 16 -48t42 -18q35 0 50.5 31.5t15.5 100.5q0 45 -6.5 97.5t-23.5 120.5l166 36q15 -59 25.5 -121.5
t10.5 -123.5q0 -64 -14.5 -115.5t-44.5 -88t-74.5 -56t-104.5 -19.5zM208 574l30 228l166 -28l-82 -220z" />
    <glyph glyph-name="omegatonos" unicode="&#x3ce;" horiz-adv-x="764" 
d="M240 -12q-97 0 -150.5 70.5t-53.5 203.5q0 28 5.5 60.5t15 66t22.5 65.5t29 58l162 -60q-35 -60 -53.5 -114t-18.5 -110q0 -44 10.5 -73t39.5 -29q30 0 43 21.5t13 60.5q0 18 -1 32.5t-3 29t-4.5 31t-5.5 39.5h180q-3 -23 -5.5 -39.5t-4.5 -31t-3 -29t-1 -32.5
q0 -45 10.5 -63.5t39.5 -18.5q23 0 36.5 33.5t13.5 94.5q0 27 -2.5 51t-9 48t-18 49t-28.5 54l158 56q32 -53 52 -112.5t20 -133.5q0 -131 -50 -204.5t-148 -73.5q-45 0 -86 21t-62 75h-4q-21 -54 -57 -75t-81 -21zM320 574l30 228l166 -28l-82 -220z" />
    <glyph glyph-name="uni03D0" unicode="&#x3d0;" horiz-adv-x="604" 
d="M324 -12q-51 0 -98.5 14.5t-85 46t-60 81t-22.5 120.5v206q0 53 14 99t42.5 79.5t73 52.5t104.5 19q43 0 84.5 -10.5t74 -33t52 -57t19.5 -82.5q0 -49 -23.5 -85.5t-74.5 -57.5v-4q31 -5 58.5 -20.5t47 -38.5t31 -52.5t11.5 -62.5q0 -56 -20 -96.5t-54 -66.5t-79 -38.5
t-95 -12.5zM224 448l-3 -57q44 11 71 23.5t41.5 27t19.5 30t5 32.5q0 36 -17 52t-41 16q-38 0 -55 -34t-21 -90zM318 136q35 0 60.5 18.5t25.5 59.5q0 33 -20.5 57.5t-67.5 24.5q-19 0 -39.5 -6.5t-58.5 -19.5v-7q0 -34 8.5 -58t22.5 -39.5t32 -22.5t37 -7z" />
    <glyph glyph-name="uni03D1" unicode="&#x3d1;" horiz-adv-x="560" 
d="M200 502q0 -19 5.5 -37t21.5 -31t45 -19.5t76 -1.5q-3 47 -11.5 77.5t-20 48.5t-26 25t-30.5 6q-30 -1 -45 -22.5t-15 -45.5zM280 -12q-59 0 -99 15t-64.5 40.5t-35.5 60t-11 73.5q0 32 -1 56t-9 47h162q3 -5 5 -14.5t3 -21t1.5 -23t0.5 -19.5q0 -44 12.5 -60t41.5 -16
q15 0 26 6.5t19.5 26.5t13 56t5.5 96q-64 -7 -111.5 -0.5t-81.5 22t-56 38t-34.5 47t-17.5 48.5t-5 44q0 40 15.5 76t43.5 63t66 43t83 16q63 0 112 -24t83 -69.5t51.5 -112t17.5 -150.5q0 -177 -56.5 -270.5t-179.5 -93.5z" />
    <glyph glyph-name="uni03D5" unicode="&#x3d5;" horiz-adv-x="760" 
d="M304 -176v168q-56 3 -105.5 21.5t-86.5 53t-58.5 84t-21.5 113.5q0 31 7.5 65t21 68.5t32 66.5t41.5 58l142 -100q-35 -45 -51.5 -87t-16.5 -87q0 -52 20 -87t76 -42v124q0 73 15.5 124t43 83.5t65.5 47t82 14.5q103 0 160.5 -63t57.5 -181q0 -64 -22 -113.5t-59 -84.5
t-85.5 -54.5t-100.5 -22.5q2 -43 3.5 -85t3.5 -84h-164zM456 272v-76t1 -76q45 6 70 35.5t25 100.5q0 67 -12.5 91.5t-35.5 24.5t-35.5 -23.5t-12.5 -76.5z" />
    <glyph glyph-name="uni03D7" unicode="&#x3d7;" horiz-adv-x="566" 
d="M444 -188l-202 12q37 39 72.5 82t61.5 84q-25 35 -52 82t-59 113q-24 -27 -34.5 -63t-10.5 -91v-31h-162v340q0 30 -2 74t-10 86h170q6 -26 8 -58t2 -68v-70h4q27 40 56.5 76t63 64t72 45.5t83.5 22.5l13 -160q-19 -3 -35.5 -8t-33 -12.5t-34 -18.5t-36.5 -26
q19 -36 42.5 -75.5t49 -78t51.5 -73t50 -60.5q-17 -26 -35 -53.5t-35 -53t-32.5 -47t-25.5 -34.5z" />
    <glyph glyph-name="uni03D9" unicode="&#x3d9;" horiz-adv-x="560" 
d="M280 118q39 0 55.5 35t16.5 97q0 57 -16.5 90.5t-55.5 33.5t-55.5 -33.5t-16.5 -90.5q0 -62 16.5 -97t55.5 -35zM200 -176v177q-35 12 -66 34t-53.5 53.5t-35.5 72t-13 89.5q0 62 20.5 111t55 82.5t79.5 51t93 17.5t92.5 -17.5t79 -51t55.5 -82.5t21 -111
q0 -48 -12.5 -88t-35 -71.5t-52.5 -54t-64 -34.5q3 -45 5.5 -90t4.5 -88h-174z" />
    <glyph glyph-name="uni03DB" unicode="&#x3db;" horiz-adv-x="500" 
d="M394 -188l-134 42q21 27 33.5 48.5t12.5 35.5q0 16 -11 27.5t-51 22.5q-39 10 -77 29.5t-68 50.5t-48.5 74.5t-18.5 101.5q0 64 21 112.5t57.5 80t86 47.5t105.5 16h172v-140q-39 2 -83 2h-75q-48 0 -78 -26.5t-30 -91.5q0 -41 24 -69.5t90 -46.5q41 -11 67 -23.5t41 -29
t20.5 -38t5.5 -49.5q0 -14 -4 -34t-11.5 -43.5t-19 -49t-27.5 -49.5z" />
    <glyph glyph-name="uni03DD" unicode="&#x3dd;" horiz-adv-x="440" 
d="M58 -176v676h356v-134h-196l2 -136h174v-112h-172q0 -74 2.5 -143.5t7.5 -150.5h-174z" />
    <glyph glyph-name="uni03E1" unicode="&#x3e1;" horiz-adv-x="550" 
d="M520 -182l-168 20q9 50 13.5 94.5t4.5 89.5v21t-1 20q-48 -23 -96 -48.5t-101 -54.5l-70 144l245 108q-6 22 -13.5 43t-15.5 42q-60 -26 -118.5 -57t-123.5 -67l-70 144l240 105q-32 43 -72.5 82t-91.5 74l112 126q172 -124 259 -297.5t87 -386.5q0 -49 -5.5 -99.5
t-14.5 -102.5z" />
    <glyph glyph-name="uni0400" unicode="&#x400;" horiz-adv-x="556" 
d="M72 0v650h420v-144h-248v-102h212v-144h-212v-116h258v-144h-430zM298 674l-196 120l90 110l182 -144z" />
    <glyph glyph-name="uni0401" unicode="&#x401;" horiz-adv-x="556" 
d="M72 0v650h420v-144h-248v-102h212v-144h-212v-116h258v-144h-430zM176 694q-35 0 -56.5 22.5t-21.5 55.5t21.5 55.5t56.5 22.5t56.5 -22.5t21.5 -55.5t-21.5 -55.5t-56.5 -22.5zM404 694q-35 0 -56.5 22.5t-21.5 55.5t21.5 55.5t56.5 22.5t56.5 -22.5t21.5 -55.5
t-21.5 -55.5t-56.5 -22.5z" />
    <glyph glyph-name="uni0402" unicode="&#x402;" horiz-adv-x="706" 
d="M478 -12q-21 0 -38 2t-32 8l26 130q8 -3 12 -3.5t10 -0.5q17 0 32.5 15.5t15.5 50.5q0 84 -92 84q-24 0 -36.5 -1.5t-27.5 -4.5v-268h-172v506h-152v144h522v-144h-198v-102q11 1 20 2.5t19 2t22 1t29 0.5q44 0 86 -12t75 -38t53 -67.5t20 -100.5q0 -54 -14 -92.5
t-39.5 -63t-61.5 -36.5t-79 -12z" />
    <glyph glyph-name="uni0403" unicode="&#x403;" horiz-adv-x="530" 
d="M72 0v650h424v-144h-252v-506h-172zM290 674l-76 86l182 144l90 -110z" />
    <glyph glyph-name="uni0404" unicode="&#x404;" horiz-adv-x="586" 
d="M354 -12q-64 0 -120.5 19t-98.5 59.5t-66.5 103t-24.5 150.5t25.5 152.5t68.5 106.5t100 62.5t120 20.5q65 0 116 -25.5t86 -60.5l-90 -110q-24 21 -49.5 34.5t-58.5 13.5q-49 0 -86.5 -25.5t-52.5 -84.5h203v-144h-207q11 -68 47.5 -96t93.5 -28q38 0 67.5 16.5
t50.5 39.5l90 -108q-42 -48 -96.5 -72t-117.5 -24z" />
    <glyph glyph-name="uni0405" unicode="&#x405;" horiz-adv-x="564" 
d="M278 -12q-62 0 -127.5 22.5t-118.5 70.5l98 118q35 -28 75.5 -45.5t76.5 -17.5q39 0 56.5 12t17.5 34q0 12 -6 20t-17.5 15t-27.5 13.5t-37 14.5l-81 34q-26 10 -50 26.5t-42 39t-28.5 51.5t-10.5 64q0 42 18 78.5t50 64t76.5 43.5t97.5 16q56 0 113.5 -21t102.5 -66
l-86 -108q-33 23 -63.5 35t-66.5 12q-32 0 -50 -11t-18 -33q0 -23 25.5 -35.5t70.5 -29.5l79 -31q61 -24 94 -67t33 -111q0 -41 -17 -79t-49.5 -66.5t-79.5 -45.5t-108 -17z" />
    <glyph glyph-name="uni0406" unicode="&#x406;" horiz-adv-x="316" 
d="M72 0v650h172v-650h-172z" />
    <glyph glyph-name="uni0407" unicode="&#x407;" horiz-adv-x="316" 
d="M72 0v650h172v-650h-172zM44 694q-35 0 -56.5 22.5t-21.5 55.5t21.5 55.5t56.5 22.5t56.5 -22.5t21.5 -55.5t-21.5 -55.5t-56.5 -22.5zM272 694q-35 0 -56.5 22.5t-21.5 55.5t21.5 55.5t56.5 22.5t56.5 -22.5t21.5 -55.5t-21.5 -55.5t-56.5 -22.5z" />
    <glyph glyph-name="uni0408" unicode="&#x408;" horiz-adv-x="520" 
d="M232 -12q-80 0 -133 30t-89 93l116 87q17 -32 39 -47t43 -15q17 0 30.5 4.5t22.5 16.5t14 32t5 51v410h172v-424q0 -49 -13.5 -92t-40.5 -75.5t-68.5 -51.5t-97.5 -19z" />
    <glyph glyph-name="uni0409" unicode="&#x409;" horiz-adv-x="926" 
d="M86 -12q-30 0 -48.5 2t-35.5 8l30 154q6 -2 12.5 -3t15.5 -1q12 0 22.5 4.5t20.5 19.5t20 44.5t21 79.5q20 88 35.5 176.5t32.5 177.5h380v-226h40q55 0 103 -11.5t82.5 -36t54.5 -64t20 -94.5q0 -62 -21 -103.5t-57 -67t-84 -36.5t-102 -11h-208v506h-76
q-11 -62 -20 -117t-20 -111q-17 -85 -37 -141t-46 -89t-59 -46.5t-76 -13.5zM592 136h28q48 0 76 18t28 62q0 72 -104 72h-28v-152z" />
    <glyph glyph-name="uni040A" unicode="&#x40a;" horiz-adv-x="934" 
d="M72 0v650h172v-242h184v242h172v-226h40q55 0 103 -11.5t82.5 -36t54.5 -64t20 -94.5q0 -62 -21 -103.5t-57 -67t-84 -36.5t-102 -11h-208v258h-184v-258h-172zM600 136h28q48 0 76 18t28 62q0 72 -104 72h-28v-152z" />
    <glyph glyph-name="uni040B" unicode="&#x40b;" horiz-adv-x="726" 
d="M176 0v506h-152v144h522v-144h-198v-102q23 3 41 4.5t38 1.5q54 0 98.5 -13t76 -40.5t49 -70.5t17.5 -104v-182h-168v182q0 47 -20.5 69.5t-71.5 22.5q-30 0 -60 -6v-268h-172z" />
    <glyph glyph-name="uni040C" unicode="&#x40c;" horiz-adv-x="638" 
d="M72 0v650h172v-248h56l82 144q36 63 79 89.5t103 26.5q15 0 31.5 -2t28.5 -8l-28 -154q-9 3 -17 3.5t-13 0.5q-23 0 -37.5 -11.5t-30.5 -38.5l-63 -108l207 -344h-180l-162 264h-56v-264h-172zM342 684l-76 86l182 144l90 -110z" />
    <glyph glyph-name="uni040D" unicode="&#x40d;" horiz-adv-x="684" 
d="M72 0v650h170v-188q0 -30 -2.5 -62.5t-5.5 -65t-7 -63.5t-7 -57h4l62 146l144 290h182v-650h-170v188q0 60 8 126t14 122h-4l-62 -145l-144 -291h-182zM354 684l-196 120l90 110l182 -144z" />
    <glyph glyph-name="uni040E" unicode="&#x40e;" horiz-adv-x="570" 
d="M166 -12q-31 0 -53 4t-37 10l30 148q9 -3 19.5 -5.5t32.5 -2.5q17 0 31.5 5t22.5 16l8 14l-220 473h182l58 -151l56 -166h4l54 166l52 151h172l-196 -491q-32 -80 -83 -125.5t-133 -45.5zM298 694q-50 0 -85 10t-57.5 28.5t-33.5 44t-12 57.5h144q3 -56 44 -56t44 56h144
q-2 -32 -12.5 -57.5t-33 -44t-57.5 -28.5t-85 -10z" />
    <glyph glyph-name="uni040F" unicode="&#x40f;" horiz-adv-x="670" 
d="M72 0v650h172v-506h182v506h172v-650h-172l-12 -188h-154v188h-188z" />
    <glyph glyph-name="uni0410" unicode="&#x410;" horiz-adv-x="584" 
d="M240 316l-11 -45h120l-11 45q-12 47 -24 102t-24 104h-4q-11 -50 -22.5 -104.5t-23.5 -101.5zM-10 0l198 650h208l198 -650h-182l-32 138h-182l-32 -138h-176z" />
    <glyph glyph-name="uni0411" unicode="&#x411;" horiz-adv-x="608" 
d="M72 0v650h460v-144h-288v-102h76q51 0 97 -9.5t81 -32t55.5 -60t20.5 -92.5q0 -58 -20 -98t-54.5 -65t-80 -36t-95.5 -11h-252zM244 132h64q98 0 98 76q0 39 -25 54.5t-73 15.5h-64v-146z" />
    <glyph glyph-name="uni0412" unicode="&#x412;" horiz-adv-x="612" 
d="M72 0v650h234q51 0 96 -7.5t78 -25.5t52.5 -49.5t19.5 -79.5q0 -21 -6 -42.5t-16.5 -41t-25.5 -34.5t-34 -22v-4q47 -14 79.5 -50.5t32.5 -101.5q0 -50 -20.5 -86.5t-55 -60t-81.5 -34.5t-99 -11h-254zM244 396h58q42 0 62 18t20 48t-20 43t-62 13h-58v-122zM244 132h70
q100 0 100 72q0 36 -24.5 51t-75.5 15h-70v-138z" />
    <glyph glyph-name="uni0413" unicode="&#x413;" horiz-adv-x="530" 
d="M72 0v650h424v-144h-252v-506h-172z" />
    <glyph glyph-name="uni0414" unicode="&#x414;" horiz-adv-x="682" 
d="M176 0v-188h-154l-14 224v108h30q11 4 23 17.5t24 40t24 67t23 97.5q8 40 14 73t12 65t12 67t14 79h408v-506h82v-108l-14 -224h-154v188h-330zM286 344q-11 -60 -27.5 -110.5t-38.5 -89.5h200v362h-104q-5 -25 -8 -43.5t-6.5 -36.5t-7 -37.5t-8.5 -44.5z" />
    <glyph glyph-name="uni0415" unicode="&#x415;" horiz-adv-x="556" 
d="M72 0v650h420v-144h-248v-102h212v-144h-212v-116h258v-144h-430z" />
    <glyph glyph-name="uni0416" unicode="&#x416;" horiz-adv-x="892" 
d="M0 0l184 340l-50 112q-14 29 -29.5 39.5t-38.5 10.5q-5 0 -13 -0.5t-17 -3.5l-28 154q12 6 28.5 8t31.5 2q60 0 104.5 -25.5t77.5 -90.5l69 -144h45v248h164v-248h45l69 144q33 65 77.5 90.5t104.5 25.5q15 0 31.5 -2t28.5 -8l-28 -154q-9 3 -17 3.5t-13 0.5
q-23 0 -38.5 -10.5t-29.5 -39.5l-50 -112l184 -340h-184l-124 264h-56v-264h-164v264h-56l-124 -264h-184z" />
    <glyph glyph-name="uni0417" unicode="&#x417;" horiz-adv-x="568" 
d="M274 -12q-62 0 -125.5 20t-116.5 68l90 118q35 -30 73 -44t77 -14q45 0 71.5 18.5t26.5 53.5q0 33 -22.5 47.5t-73.5 14.5h-92v126h72q48 0 67 16t19 43q0 33 -21.5 46t-56.5 13q-36 0 -64.5 -11.5t-61.5 -34.5l-86 114q47 41 102.5 60.5t115.5 19.5q121 0 180.5 -47.5
t59.5 -130.5q0 -45 -19.5 -81.5t-57.5 -56.5v-4q46 -14 76.5 -53t30.5 -95q0 -51 -20 -90t-55.5 -64.5t-84 -38.5t-104.5 -13z" />
    <glyph glyph-name="uni0418" unicode="&#x418;" horiz-adv-x="684" 
d="M72 0v650h170v-188q0 -30 -2.5 -62.5t-5.5 -65t-7 -63.5t-7 -57h4l62 146l144 290h182v-650h-170v188q0 60 8 126t14 122h-4l-62 -145l-144 -291h-182z" />
    <glyph glyph-name="uni0419" unicode="&#x419;" horiz-adv-x="684" 
d="M72 0v650h170v-188q0 -30 -2.5 -62.5t-5.5 -65t-7 -63.5t-7 -57h4l62 146l144 290h182v-650h-170v188q0 60 8 126t14 122h-4l-62 -145l-144 -291h-182zM346 704q-50 0 -85 10t-57.5 28.5t-33.5 44t-12 57.5h144q3 -56 44 -56t44 56h144q-2 -32 -12.5 -57.5t-33 -44
t-57.5 -28.5t-85 -10z" />
    <glyph glyph-name="uni041A" unicode="&#x41a;" horiz-adv-x="638" 
d="M72 0v650h172v-248h56l82 144q36 63 79 89.5t103 26.5q15 0 31.5 -2t28.5 -8l-28 -154q-9 3 -17 3.5t-13 0.5q-23 0 -37.5 -11.5t-30.5 -38.5l-63 -108l207 -344h-180l-162 264h-56v-264h-172z" />
    <glyph glyph-name="uni041B" unicode="&#x41b;" horiz-adv-x="668" 
d="M70 -12q-30 0 -48.5 2t-35.5 8l30 154q6 -2 12.5 -3t15.5 -1q12 0 22.5 4.5t20.5 19.5t20 44.5t21 79.5q20 88 35.5 176.5t32.5 177.5h400v-650h-172v506h-96q-11 -62 -21 -117t-21 -111q-17 -85 -36.5 -141t-45 -89t-58.5 -46.5t-76 -13.5z" />
    <glyph glyph-name="uni041C" unicode="&#x41c;" horiz-adv-x="776" 
d="M72 0v650h184l98 -266q9 -27 17 -56t17 -58h4q9 29 17 58t17 56l94 266h184v-650h-156v192q0 25 2.5 55t5.5 61.5t7 61.5t7 54h-4l-54 -156l-80 -215h-92l-80 215l-52 156h-4q3 -24 7 -54t7 -61.5t5.5 -61.5t2.5 -55v-192h-154z" />
    <glyph glyph-name="uni041D" unicode="&#x41d;" horiz-adv-x="682" 
d="M72 0v650h172v-242h194v242h172v-650h-172v258h-194v-258h-172z" />
    <glyph glyph-name="uni041E" unicode="&#x41e;" horiz-adv-x="692" 
d="M346 -12q-68 0 -123.5 23t-95 66.5t-61.5 107t-22 143.5t22 142.5t61.5 105t95 64.5t123.5 22q67 0 123 -22t95.5 -65t61.5 -105t22 -142t-22 -143.5t-61.5 -107t-95.5 -66.5t-123 -23zM346 136q59 0 92.5 51.5t33.5 140.5t-33.5 137.5t-92.5 48.5t-92.5 -48.5
t-33.5 -137.5t33.5 -140.5t92.5 -51.5z" />
    <glyph glyph-name="uni041F" unicode="&#x41f;" horiz-adv-x="670" 
d="M72 0v650h526v-650h-172v506h-182v-506h-172z" />
    <glyph glyph-name="uni0420" unicode="&#x420;" horiz-adv-x="608" 
d="M72 0v650h238q53 0 101 -10.5t84 -36t57.5 -67t21.5 -102.5q0 -60 -21.5 -103t-57.5 -70.5t-83 -41t-98 -13.5h-70v-206h-172zM244 342h62q51 0 75.5 24t24.5 68t-27 62t-77 18h-58v-172z" />
    <glyph glyph-name="uni0421" unicode="&#x421;" horiz-adv-x="586" 
d="M354 -12q-62 0 -118.5 20.5t-99 62t-67.5 104t-25 145.5q0 82 26 145.5t69.5 107t100 66.5t118.5 23q65 0 116 -25.5t86 -60.5l-90 -110q-24 21 -49.5 34.5t-58.5 13.5q-29 0 -54.5 -13t-45 -37t-31 -59t-11.5 -79q0 -92 38.5 -141t101.5 -49q38 0 67.5 16.5t50.5 39.5
l90 -108q-42 -48 -96.5 -72t-117.5 -24z" />
    <glyph glyph-name="uni0422" unicode="&#x422;" horiz-adv-x="564" 
d="M196 0v506h-172v144h516v-144h-172v-506h-172z" />
    <glyph glyph-name="uni0423" unicode="&#x423;" horiz-adv-x="570" 
d="M166 -12q-31 0 -53 4t-37 10l30 148q9 -3 19.5 -5.5t32.5 -2.5q17 0 31.5 5t22.5 16l8 14l-220 473h182l58 -151l56 -166h4l54 166l52 151h172l-196 -491q-32 -80 -83 -125.5t-133 -45.5z" />
    <glyph glyph-name="uni0424" unicode="&#x424;" horiz-adv-x="776" 
d="M572 328q0 61 -30 90t-80 35v-253q50 6 80 36.5t30 91.5zM204 328q0 -61 30 -91.5t80 -36.5v253q-50 -6 -80 -35t-30 -90zM314 -12v85q-62 4 -112 22t-85 49.5t-54 77.5t-19 106t19 105.5t54 76.5t85 48t112 21v83h148v-83q62 -4 112 -21t85 -48t54 -76.5t19 -105.5
t-19 -106t-54 -77.5t-85 -49.5t-112 -22v-85h-148z" />
    <glyph glyph-name="uni0425" unicode="&#x425;" horiz-adv-x="588" 
d="M10 0l176 334l-166 316h192l44 -106q11 -23 21.5 -49.5t24.5 -58.5h4q11 32 21 58.5t19 49.5l38 106h184l-166 -324l176 -326h-192l-52 116q-12 26 -23 52t-23 56h-4q-11 -30 -21 -56t-21 -52l-48 -116h-184z" />
    <glyph glyph-name="uni0426" unicode="&#x426;" horiz-adv-x="680" 
d="M72 0v650h172v-506h174v506h172v-506h82v-108l-14 -224h-154v188h-432z" />
    <glyph glyph-name="uni0427" unicode="&#x427;" horiz-adv-x="642" 
d="M398 0v252q-21 -3 -40.5 -4.5t-49.5 -1.5q-59 0 -105 13t-78.5 42.5t-49.5 77t-17 115.5v156h168v-156q0 -62 23 -87t77 -25q26 0 42 1.5t30 4.5v262h172v-650h-172z" />
    <glyph glyph-name="uni0428" unicode="&#x428;" horiz-adv-x="928" 
d="M72 0v650h168v-506h142v506h164v-506h142v506h168v-650h-784z" />
    <glyph glyph-name="uni0429" unicode="&#x429;" horiz-adv-x="946" 
d="M770 -188v188h-698v650h168v-506h142v506h164v-506h142v506h168v-506h82v-108l-14 -224h-154z" />
    <glyph glyph-name="uni042A" unicode="&#x42a;" horiz-adv-x="734" 
d="M208 0v506h-184v144h356v-226h56q52 0 99.5 -12t84 -37t58.5 -64t22 -93q0 -62 -21 -103.5t-56.5 -67t-83 -36.5t-99.5 -11h-232zM380 136h52q48 0 74 18t26 62q0 35 -25.5 53.5t-78.5 18.5h-48v-152z" />
    <glyph glyph-name="uni042B" unicode="&#x42b;" horiz-adv-x="874" 
d="M72 0v650h172v-226h50q55 0 103 -11.5t82.5 -36t54.5 -64t20 -94.5q0 -62 -21 -103.5t-57 -67t-84 -36.5t-102 -11h-218zM244 136h38q48 0 76 18t28 62q0 72 -104 72h-38v-152zM630 0v650h172v-650h-172z" />
    <glyph glyph-name="uni042C" unicode="&#x42c;" horiz-adv-x="608" 
d="M72 0v650h172v-226h70q55 0 103 -11.5t82.5 -36t54.5 -64t20 -94.5q0 -62 -21 -103.5t-57 -67t-84 -36.5t-102 -11h-238zM244 136h58q48 0 76 18t28 62q0 72 -104 72h-58v-152z" />
    <glyph glyph-name="uni042D" unicode="&#x42d;" horiz-adv-x="586" 
d="M238 -12q-63 0 -119 24t-101 72l90 108q24 -23 55.5 -39.5t72.5 -16.5q52 0 86 28t45 96h-207v144h205q-14 59 -47.5 84.5t-85.5 25.5q-35 0 -61.5 -12.5t-54.5 -35.5l-90 110q38 35 94 60.5t122 25.5q62 0 117 -20.5t95.5 -62.5t64 -106.5t23.5 -152.5t-24.5 -150.5
t-66 -103t-97 -59.5t-116.5 -19z" />
    <glyph glyph-name="uni042E" unicode="&#x42e;" horiz-adv-x="966" 
d="M628 -12q-120 0 -194.5 70.5t-91.5 199.5h-98v-258h-172v650h172v-242h100q18 124 92 189t192 65q67 0 121.5 -22t93 -65t59 -105t20.5 -142t-20.5 -143.5t-59 -107t-93 -66.5t-121.5 -23zM628 136q59 0 88.5 51.5t29.5 140.5t-29.5 137.5t-88.5 48.5t-88.5 -48.5
t-29.5 -137.5t29.5 -140.5t88.5 -51.5z" />
    <glyph glyph-name="uni042F" unicode="&#x42f;" horiz-adv-x="630" 
d="M386 0v218h-55l-127 -218h-196l162 246q-53 25 -85.5 72t-32.5 122q0 61 21 101.5t56.5 64.5t82.5 34t100 10h246v-650h-172zM324 354h62v160h-62q-51 0 -77.5 -16t-26.5 -58q0 -86 104 -86z" />
    <glyph glyph-name="uni0430" unicode="&#x430;" horiz-adv-x="536" 
d="M188 -12q-35 0 -63 12.5t-47.5 33.5t-29.5 49t-10 59q0 78 64 122.5t208 59.5q-6 52 -70 52q-27 0 -57 -10.5t-69 -31.5l-60 112q53 32 107 49t113 17q97 0 152.5 -55.5t55.5 -178.5v-278h-140l-12 48h-4q-30 -27 -63.5 -43.5t-74.5 -16.5zM248 120q21 0 34.5 9.5
t27.5 24.5v68q-62 -9 -85 -27t-23 -39q0 -36 46 -36z" />
    <glyph glyph-name="uni0431" unicode="&#x431;" horiz-adv-x="568" 
d="M290 -12q-122 0 -187 86.5t-65 241.5q0 107 23.5 177t65.5 113t100 64t127 30q47 6 74.5 12.5t51.5 17.5l32 -148q-20 -17 -53.5 -26t-68.5 -14q-49 -6 -82 -11.5t-54 -17.5t-32 -34t-15 -60q24 26 59 39.5t74 13.5q37 0 71.5 -14t61 -42.5t42 -72t15.5 -101.5
q0 -57 -18 -104t-49.5 -80t-76 -51.5t-96.5 -18.5zM288 126q35 0 50.5 31t15.5 85q0 63 -18.5 84t-48.5 21q-22 0 -45 -11.5t-40 -39.5v-22q0 -78 23.5 -113t62.5 -35z" />
    <glyph glyph-name="uni0432" unicode="&#x432;" horiz-adv-x="536" 
d="M58 0v500h220q42 0 80 -6.5t66.5 -22t45 -41t16.5 -64.5q0 -29 -19 -59t-65 -43v-4q48 -12 75 -39t27 -77q0 -39 -17 -66.5t-46.5 -44.5t-68 -25t-80.5 -8h-234zM226 310h45q27 0 39 10t12 28t-11.5 29t-40.5 11h-44v-78zM226 112h58q31 0 42.5 13t11.5 31q0 17 -12 29.5
t-42 12.5h-58v-86z" />
    <glyph glyph-name="uni0433" unicode="&#x433;" horiz-adv-x="440" 
d="M58 0v500h356v-134h-184v-366h-172z" />
    <glyph glyph-name="uni0434" unicode="&#x434;" horiz-adv-x="604" 
d="M172 0v-172h-148l-16 192v114h34q8 4 15.5 13.5t14 29t12.5 51.5t12 82l22 190h396v-366h82v-114l-16 -192h-148v172h-260zM244 270q-9 -84 -36 -136h134v232h-88z" />
    </font>
</defs>
</svg>
