<?xml version="1.0" standalone="no"?>
<!DOCTYPE svg PUBLIC "-//W3C//DTD SVG 1.1//EN" "http://www.w3.org/Graphics/SVG/1.1/DTD/svg11.dtd" >
<!--
2013-9-15: Created.
-->
<svg xmlns="http://www.w3.org/2000/svg">
<metadata>
Created by FontForge 20120731 at Sun Sep 15 15:49:36 2013
 By Tyler Wanlass
Created by Tyler Wanlass with FontForge 2.0 (http://fontforge.sf.net)
</metadata>
<defs>
<font id="picto-foundry-food" horiz-adv-x="512" >
  <font-face 
    font-family="picto-foundry-food"
    font-weight="500"
    font-stretch="normal"
    units-per-em="512"
    panose-1="2 0 6 3 0 0 0 0 0 0"
    ascent="448"
    descent="-64"
    bbox="-0.552286 -64 512 448.373"
    underline-thickness="25.6"
    underline-position="-51.2"
    unicode-range="U+F100-F132"
  />
    <missing-glyph />
    <glyph glyph-name="uniF100" unicode="&#xf100;" horiz-adv-x="493" 
d="M331 393c55 0 162 -67 162 -173c0 -101 -108 -284 -154 -284c-19 0 -33 8 -46 15c-14 7 -27 14 -46 14s-31 -6 -44 -13c-14 -8 -28 -16 -50 -16c-47 0 -153 181 -153 284c0 47 19 92 53 126c30 30 68 47 100 47c37 0 58 -11 72 -19c7 -4 13 -7 19 -8c10 45 33 82 64 82
v-19c-17 0 -34 -24 -43 -57c1 1 2 2 4 3c14 8 31 18 62 18zM339 -45c25 0 135 160 135 265c0 96 -99 155 -143 155c-26 0 -39 -8 -52 -16c-6 -4 -12 -8 -19 -10c-2 -10 -3 -20 -3 -30c24 2 46 9 58 21l13 -13c-17 -17 -48 -27 -81 -27s-64 10 -81 27l13 13
c12 -12 34 -19 59 -21c0 10 2 19 3 29c-9 1 -18 5 -26 10c-14 8 -29 17 -62 17c-54 0 -134 -62 -134 -155c0 -99 105 -265 134 -265c17 0 28 6 41 13c14 8 30 16 53 16c24 0 41 -9 55 -17c12 -7 23 -12 37 -12z" />
    <glyph glyph-name="uniF101" unicode="&#xf101;" 
d="M380 448l132 -132s-80 -25 -129 -74s-40 -124 -75 -182s-176 -124 -176 -124l-132 132s121 37 155 114s18 117 76 173s149 93 149 93zM35 60l35 -34c31 15 114 60 141 97c13 17 17 40 22 67c6 33 13 71 38 106c33 46 102 79 139 94l-34 35c-26 -12 -89 -43 -131 -84
c-32 -31 -39 -56 -47 -90c-5 -22 -12 -47 -25 -77c-27 -60 -97 -97 -138 -114zM369 256c33 33 79 56 108 68l-36 35c-24 -9 -106 -39 -138 -85c-20 -28 -26 -60 -32 -91c-6 -30 -11 -60 -29 -84c-32 -43 -111 -86 -143 -102l37 -37c44 22 131 71 155 110c14 22 20 48 27 75
c10 39 19 79 51 111z" />
    <glyph glyph-name="uniF102" unicode="&#xf102;" horiz-adv-x="438" 
d="M382 370c31 0 56 -25 56 -56v-246c0 -31 -25 -56 -56 -56h-56v-29c0 -26 -21 -47 -47 -47h-232c-26 0 -47 21 -47 47v418c0 26 21 47 47 47h232c26 0 47 -21 47 -47v-31h56zM307 -17v0v312h-37v-266c0 -27 -22 -49 -49 -49s-49 22 -49 49v266h-23v-266
c0 -27 -22 -49 -49 -49s-49 22 -49 49v266h-32v-312c0 -15 13 -28 28 -28h232c15 0 28 13 28 28zM70 29c0 -17 13 -30 30 -30s30 13 30 30v266h-60v-266zM191 29c0 -17 13 -30 30 -30s30 13 30 30v266h-60v-266zM307 314v87c0 15 -13 28 -28 28h-232c-15 0 -28 -13 -28 -28
v-87h288zM419 68v246c0 21 -16 37 -37 37h-56v-321h56c21 0 37 17 37 38z" />
    <glyph glyph-name="uniF103" unicode="&#xf103;" 
d="M256 448c141 0 256 -56 256 -124c0 -25 -15 -48 -41 -67l-8 -319h-412l-8 318c-27 20 -43 43 -43 68c0 68 115 124 256 124zM460 272c15 11 33 30 33 52c0 25 -23 51 -64 71c-46 22 -107 34 -173 34s-127 -12 -173 -34c-41 -20 -64 -46 -64 -71c0 -23 19 -41 35 -53l8 -6
v-9l8 -299h375l7 301v9z" />
    <glyph glyph-name="uniF104" unicode="&#xf104;" 
d="M464 9h48v-12c0 -30 -24 -54 -54 -54h-404c-30 0 -54 24 -54 54v12h49v253c0 25 20 45 45 45h45v73c-11 5 -18 17 -18 33c0 20 12 35 27 35s27 -15 27 -35c0 -16 -7 -28 -18 -33v-73h90v73c-11 5 -19 17 -19 33c0 20 13 35 28 35s27 -15 27 -35c0 -16 -7 -28 -18 -33v-73
h90v73c-11 5 -19 17 -19 33c0 20 12 35 27 35s28 -15 28 -35c0 -15 -7 -28 -18 -33v-73h46c25 0 45 -20 45 -45v-253zM354 413c0 -10 5 -17 9 -17s10 7 10 17s-6 17 -10 17s-9 -7 -9 -17zM246 413c0 -10 6 -17 10 -17s9 7 9 17s-5 17 -9 17s-10 -7 -10 -17zM139 413
c0 -10 5 -17 9 -17s9 7 9 17s-5 17 -9 17s-9 -7 -9 -17zM67 262v-64h379v64c0 15 -12 27 -27 27h-325c-15 0 -27 -12 -27 -27zM67 112v-101h379v101h-379zM458 -39c18 0 33 13 36 30h-476c3 -17 18 -30 36 -30h404z" />
    <glyph glyph-name="uniF105" unicode="&#xf105;" horiz-adv-x="510" 
d="M375 448c75 0 135 -60 135 -135s-60 -136 -135 -136c-34 0 -64 13 -88 33l-274 -274l-13 13l274 274c-21 24 -34 56 -34 90c0 75 60 135 135 135zM375 196c64 0 117 53 117 117s-53 116 -117 116s-117 -52 -117 -116s53 -117 117 -117zM296 315c0 42 33 76 75 77
c0 -6 1 -13 1 -19c-32 -1 -58 -26 -58 -58c0 -2 1 -4 1 -5c-6 -1 -13 -1 -19 -1v6z" />
    <glyph glyph-name="uniF106" unicode="&#xf106;" 
d="M491 351c10 -6 24 -14 20 -31c-2 -9 -13 -21 -62 -21c-7 0 -16 0 -25 1c16 -27 30 -59 20 -69l-216 -216c-2 -2 -6 -3 -11 -3c-14 0 -37 10 -57 22c12 -63 2 -80 -10 -83c-2 -1 -5 -1 -7 -1c-11 0 -18 7 -24 13c-7 6 -11 10 -18 10s-14 -4 -22 -8c-11 -6 -26 -15 -39 -2
c-12 12 -8 24 -5 34c2 7 5 15 5 27c0 11 -7 16 -19 23c-10 6 -24 14 -20 31c3 10 18 26 94 20c-16 27 -30 60 -20 70l216 216c2 2 6 3 11 3c12 0 31 -7 49 -17c-10 58 0 74 11 77c14 4 24 -5 31 -12c7 -6 11 -10 18 -10s14 5 22 9c11 6 26 14 39 1c12 -12 8 -24 5 -34
c-2 -7 -5 -15 -5 -27c0 -11 7 -16 19 -23zM412 407l-23 -62c3 -2 5 -4 7 -6l60 23c-1 4 -2 8 -2 12c0 15 3 25 5 33c3 10 3 12 0 15c-2 2 -6 1 -17 -5c-9 -5 -19 -10 -30 -10zM368 429c-4 -7 -3 -40 4 -73h1l21 55c-6 3 -10 7 -14 11c-6 6 -8 8 -12 7zM302 369l-84 -84h193
c-8 15 -18 30 -27 39c-13 13 -63 44 -82 45zM30 63c7 -4 16 -9 22 -17l57 31l-1 2v-1c-41 4 -84 2 -89 -5c0 -2 1 -4 11 -10zM100 -8l22 69l-1 1h-1l-62 -34v-4c0 -15 -3 -25 -5 -33c-3 -10 -3 -12 0 -15c2 -2 6 -1 17 5c9 5 19 11 30 11zM144 -31c5 7 2 43 -6 78h1l-1 1
l-20 -61c6 -3 10 -6 14 -10c6 -6 9 -9 12 -8zM216 30l106 106h-226c9 -20 26 -48 39 -61s62 -44 81 -45zM428 243c0 5 -2 13 -7 23h-222l-109 -109v-2h251zM493 325c0 2 -1 4 -11 10c-5 3 -11 6 -16 11l-57 -23c1 -1 1 -2 2 -3c39 -4 77 -1 82 5z" />
    <glyph glyph-name="uniF107" unicode="&#xf107;" 
d="M256 310c0 -39 -32 -71 -71 -71s-71 32 -71 71s32 71 71 71s71 -32 71 -71zM185 258c29 0 53 23 53 52s-24 53 -53 53s-52 -24 -52 -53s23 -52 52 -52zM295 213c54 -3 95 -51 92 -105c-3 -52 -46 -92 -98 -92h-7c-26 2 -50 14 -67 34s-26 45 -24 71c3 54 50 95 104 92z
M368 109c3 44 -30 82 -74 85h-5c-42 0 -77 -32 -80 -74c-1 -21 6 -42 20 -58s34 -26 55 -27c44 -3 81 31 84 74zM367 348c21 0 38 -17 38 -38s-17 -38 -38 -38s-38 17 -38 38s17 38 38 38zM367 291c11 0 20 8 20 19s-9 20 -20 20s-19 -9 -19 -20s8 -19 19 -19zM465 448
c26 0 47 -21 47 -47v-418c0 -26 -21 -47 -47 -47h-418c-26 0 -47 21 -47 47v110s81 21 81 101s-81 93 -81 93v114c0 26 21 47 47 47h418zM493 -17v418c0 15 -13 28 -28 28h-418c-15 0 -28 -13 -28 -28v-99c35 -11 81 -43 81 -108s-47 -100 -81 -114v-97c0 -15 13 -28 28 -28
h418c15 0 28 13 28 28z" />
    <glyph glyph-name="uniF108" unicode="&#xf108;" 
d="M390 378c67 0 122 -58 122 -129c0 -56 -34 -106 -84 -123l-7 -95c0 -32 -25 -59 -56 -59h-209c-31 0 -56 26 -56 59l-7 93c-55 14 -93 65 -93 125c0 71 55 129 122 129c9 0 18 -2 27 -4c20 45 62 74 110 74c47 0 89 -29 109 -73c7 1 15 3 22 3zM416 142
c45 13 77 57 77 107c0 61 -46 110 -103 110c-8 0 -16 -2 -25 -4l-8 -2l-3 8c-16 41 -53 68 -95 68s-80 -27 -96 -69l-3 -9l-8 3c-10 3 -20 5 -30 5c-57 0 -103 -49 -103 -110c0 -54 36 -99 85 -108l7 -2l7 -107c0 -23 17 -41 38 -41h209c21 0 37 18 37 40l8 110zM220 139
l-19 -5l-28 103l18 5zM341 237l-28 -103l-18 5l28 103z" />
    <glyph glyph-name="uniF109" unicode="&#xf109;" 
d="M392 187c66 0 120 -54 120 -120s-54 -120 -120 -120s-120 54 -120 120c0 50 32 93 76 111c-15 64 -9 137 0 186c-29 -43 -80 -104 -159 -156c12 -17 18 -37 18 -59c0 -57 -46 -103 -103 -103s-104 46 -104 103s47 104 104 104c28 0 54 -11 73 -30c70 46 118 99 147 140
c-17 -12 -37 -22 -60 -28c-12 -3 -26 -4 -40 -4c-51 0 -93 21 -95 22l-9 5l6 8c2 2 45 61 112 77c12 3 25 5 39 5c51 0 93 -21 95 -22l10 -5l-3 -3c-4 -13 -36 -135 -13 -234c8 2 17 3 26 3zM104 64c47 0 84 38 84 85c0 18 -5 35 -15 49c-7 -5 -15 -10 -23 -14l-9 17
c7 4 13 7 19 11c-15 13 -34 22 -56 22c-47 0 -85 -38 -85 -85s38 -85 85 -85zM259 353c45 11 80 45 94 61c-15 6 -44 15 -76 15c-12 0 -24 -1 -35 -4c-45 -11 -79 -44 -93 -60c15 -6 43 -16 75 -16c12 0 24 1 35 4zM392 -34c56 0 101 45 101 101s-45 101 -101 101
c-7 0 -14 -1 -21 -2c3 -8 6 -16 9 -23l-17 -8c-4 8 -7 16 -10 25c-36 -15 -62 -51 -62 -93c0 -56 45 -101 101 -101zM39 163c0 26 21 46 47 46v-18c-16 0 -29 -12 -29 -28h-18zM320 69c-9 24 3 52 27 61l6 -18c-15 -6 -22 -22 -16 -36z" />
    <glyph glyph-name="uniF10A" unicode="&#xf10a;" 
d="M479 415c56 -56 38 -165 -40 -243c-58 -58 -192 -69 -192 -69l-53 -54l-5 34l-73 -82c7 -14 5 -40 -7 -52c-15 -15 -42 -13 -57 2c-5 5 -8 24 -10 30c-6 2 -24 5 -29 10c-15 15 -18 41 -3 56c11 11 37 14 51 8l81 72l-31 4l55 56s13 131 70 188c48 48 107 73 158 73
c33 0 63 -11 85 -33zM94 5l92 101l-2 14l-19 3l-99 -90l-12 5c-7 3 -25 2 -31 -4c-12 -12 0 -26 2 -29c3 -1 11 -4 15 -5c3 -1 5 -1 7 -1l10 -3l3 -10c0 -2 1 -4 2 -7c1 -4 3 -13 4 -16c3 -2 17 -13 29 -1c6 6 8 23 4 31zM426 185c71 71 89 168 40 217c-18 18 -42 28 -72 28
c-48 0 -103 -26 -145 -68c-52 -52 -64 -176 -64 -177l-1 -7l-5 -4l-29 -30l37 -6l13 -2l2 -13l5 -35l27 28l5 5h7c1 0 127 11 180 64z" />
    <glyph glyph-name="uniF10B" unicode="&#xf10b;" 
d="M0 204h512v-9c0 -36 -116 -242 -256 -242s-256 206 -256 242v9zM256 -29c122 0 221 169 236 215h-472c15 -46 114 -215 236 -215zM229 398v-172l-187 210l14 12l155 -175v125h18z" />
    <glyph glyph-name="uniF10C" unicode="&#xf10c;" horiz-adv-x="508" 
d="M367 364c81 -15 141 -70 141 -156s-60 -141 -141 -156v-70c0 -26 -21 -46 -47 -46h-274c-26 0 -46 20 -46 46v466h367v-84zM367 71c71 15 123 61 123 137c0 75 -52 122 -123 137v-274z" />
    <glyph glyph-name="uniF10D" unicode="&#xf10d;" horiz-adv-x="508" 
d="M367 364c81 -15 141 -70 141 -156s-60 -141 -141 -156v-70c0 -26 -21 -46 -47 -46h-274c-26 0 -46 20 -46 46v466h367v-84zM348 -18v448h-330v-448c0 -15 13 -28 28 -28h274c15 0 28 13 28 28zM367 71c71 14 123 61 123 137s-52 122 -123 137v-274zM188 94l-89 90
c-25 25 -24 65 0 89c12 12 28 18 44 18s33 -7 45 -19v1c12 12 29 18 45 18s32 -6 44 -18c25 -25 25 -64 0 -89zM112 260c-17 -17 -16 -46 1 -63l75 -76l76 76c8 8 13 19 13 31s-5 24 -13 32s-19 13 -31 13s-24 -5 -32 -13v-1l-13 -13l-13 13c-9 9 -20 13 -32 13
s-23 -4 -31 -12z" />
    <glyph glyph-name="uniF10E" unicode="&#xf10e;" horiz-adv-x="508" 
d="M367 364c81 -15 141 -70 141 -156s-60 -141 -141 -156v-70c0 -26 -21 -46 -47 -46h-274c-26 0 -46 20 -46 46v466h367v-84zM348 -18v448h-330v-448c0 -15 13 -28 28 -28h274c15 0 28 13 28 28zM367 71c71 14 123 61 123 137s-52 122 -123 137v-274z" />
    <glyph glyph-name="uniF10F" unicode="&#xf10f;" 
d="M256 448c141 0 256 -86 256 -216s-115 -235 -256 -235s-256 105 -256 235s115 216 256 216zM256 15c131 0 237 98 237 217c0 115 -99 197 -237 197s-237 -82 -237 -197c0 -119 106 -217 237 -217zM310 275c50 0 91 -41 91 -91s-41 -90 -91 -90v0c-24 0 -47 9 -64 26
s-26 41 -26 65c0 50 40 90 90 90zM310 112c39 0 72 32 72 72s-32 72 -72 72s-72 -31 -72 -71c0 -19 7 -37 21 -51s32 -22 51 -22v-9v9z" />
    <glyph glyph-name="uniF110" unicode="&#xf110;" 
d="M128 286c0 12 7 18 19 18s18 -6 18 -18s-6 -19 -18 -19s-19 7 -19 19zM256 248c0 12 7 19 19 19s18 -7 18 -19s-6 -18 -18 -18s-19 6 -19 18zM165 176c0 12 7 19 19 19s18 -7 18 -19s-6 -19 -18 -19s-19 7 -19 19zM165 71c0 12 7 19 19 19s18 -7 18 -19s-6 -18 -18 -18
s-19 6 -19 18zM65 192c0 12 7 19 19 19s18 -7 18 -19s-6 -18 -18 -18s-19 6 -19 18zM275 127c0 12 6 19 18 19s19 -7 19 -19s-7 -19 -19 -19s-18 7 -18 19zM358 157c0 12 7 19 19 19s19 -7 19 -19s-7 -18 -19 -18s-19 6 -19 18zM275 32c0 12 6 18 18 18s19 -6 19 -18
s-7 -19 -19 -19s-18 7 -18 19zM237 365c0 12 7 18 19 18s19 -6 19 -18s-7 -19 -19 -19s-19 7 -19 19zM508 188h2h2c-1 -70 -26 -129 -76 -178s-110 -74 -180 -74c-71 0 -131 25 -181 75s-75 110 -75 181s25 131 75 181s110 75 181 75c30 0 60 -6 88 -16
c-9 -22 -13 -44 -13 -67c0 -49 16 -90 51 -125s77 -52 126 -52zM256 -45c61 0 115 20 160 62s70 93 76 153c-51 4 -93 25 -128 62s-52 82 -52 133c0 19 3 38 8 56c-21 6 -42 8 -64 8c-65 0 -122 -23 -168 -69s-69 -103 -69 -168s23 -122 69 -168s103 -69 168 -69z" />
    <glyph glyph-name="uniF111" unicode="&#xf111;" horiz-adv-x="510" 
d="M292 448c121 0 218 -97 218 -218s-97 -219 -218 -219c-45 0 -86 14 -121 37l-100 -100c-8 -8 -19 -12 -30 -12s-21 4 -29 12s-12 18 -12 29s4 22 12 30l100 99c-24 35 -38 78 -38 124c0 121 97 218 218 218zM57 -39l98 98c-12 9 -22 20 -32 32l-98 -98
c-4 -4 -6 -10 -6 -16s2 -12 6 -16c9 -9 23 -9 32 0zM292 30c110 0 200 90 200 200s-90 199 -200 199s-200 -89 -200 -199s90 -200 200 -200zM35 -20c0 6 4 9 10 9s9 -3 9 -9s-3 -9 -9 -9s-10 3 -10 9zM300 86c43 2 80 23 105 54c7 -1 15 -1 22 -1c-28 -41 -74 -69 -126 -72
c0 6 -1 13 -1 19zM129 230c0 89 72 161 161 162v-18c-79 -1 -142 -65 -142 -144c0 -14 2 -27 6 -40c-7 4 -15 8 -22 12c-2 9 -3 19 -3 28z" />
    <glyph glyph-name="uniF112" unicode="&#xf112;" 
d="M0 82v19h512v-19h-512zM481 142l1 -11h-452l1 11c11 142 85 234 195 248c-4 6 -7 13 -7 21c0 21 17 37 38 37s37 -16 37 -37c0 -8 -2 -15 -6 -21c109 -15 182 -107 193 -248zM257 429c-10 0 -19 -8 -19 -18s9 -19 19 -19s18 9 18 19s-8 18 -18 18zM418 150h43
c-14 138 -92 224 -205 224s-191 -86 -205 -224h349c0 73 -58 181 -110 181v18c63 0 128 -116 128 -199z" />
    <glyph glyph-name="uniF113" unicode="&#xf113;" horiz-adv-x="418" 
d="M209 448c110 0 209 -138 209 -285s-99 -227 -209 -227s-209 80 -209 227s99 285 209 285zM125 120l-14 13l34 37l61 -13l63 44l38 -59l92 13v8c0 137 -92 266 -190 266s-190 -129 -190 -266c0 -64 19 -117 57 -155c34 -34 82 -53 133 -53s99 19 133 53
c32 32 51 76 56 128l-101 -14l-33 52l-54 -37l-59 13z" />
    <glyph glyph-name="uniF114" unicode="&#xf114;" 
d="M105 289c0 22 9 36 17 48s14 22 14 39c0 34 -25 59 -25 59l13 13c1 -1 31 -30 31 -72c0 -22 -10 -36 -18 -49c-8 -12 -14 -22 -14 -38c0 -33 18 -51 19 -52l-13 -13c-1 1 -24 24 -24 65zM160 289c0 22 9 36 17 48s15 22 15 39c0 34 -25 59 -25 59l12 13
c1 -1 31 -30 31 -72c0 -22 -9 -36 -17 -49c-8 -12 -14 -22 -14 -38c0 -33 18 -51 19 -52l-13 -13c-1 1 -25 24 -25 65zM216 289c0 22 9 36 17 48s14 22 14 39c0 34 -25 59 -25 59l13 13c1 -1 31 -30 31 -72c0 -22 -10 -36 -18 -49c-8 -12 -14 -22 -14 -38
c0 -33 18 -51 19 -52l-13 -13c-1 1 -24 24 -24 65zM271 289c0 22 9 36 17 48s15 22 15 39c0 34 -25 59 -25 59l12 13c1 -1 31 -30 31 -72c0 -22 -9 -36 -17 -49c-8 -12 -14 -22 -14 -38c0 -33 18 -51 19 -52l-13 -13c-1 1 -25 24 -25 65zM420 185v0h92l-5 -13
c-23 -61 -47 -95 -73 -101c-3 -1 -6 -1 -8 -1c-12 0 -18 6 -19 7l12 14s4 -4 11 -2c10 3 30 16 55 77h-67c-17 -89 -101 -179 -205 -179c-117 0 -208 114 -208 212v9h416v-9c0 -5 -1 -9 -1 -14zM213 6c103 0 184 96 189 183h-378c5 -87 86 -183 189 -183zM0 -43v19h424v-19
h-424z" />
    <glyph glyph-name="uniF115" unicode="&#xf115;" 
d="M485 258c17 -11 27 -24 27 -35c0 -8 -4 -14 -12 -20l-33 -213c-8 -27 -22 -49 -49 -49h-325c-27 0 -38 18 -49 49l-31 213c-8 6 -13 12 -13 20c0 11 10 24 28 36c7 35 34 65 74 87c6 56 68 98 71 100l4 2l4 -1c24 -6 127 -35 167 -76c74 -20 127 -62 137 -113zM181 427
c-11 -8 -46 -36 -57 -70c37 16 83 26 132 26c16 0 32 -1 47 -3c-35 19 -84 37 -122 47zM256 363c-96 0 -178 -38 -203 -90c48 23 124 40 203 40s156 -18 204 -41c-24 52 -108 91 -204 91zM93 -39h55l-21 230h-93l29 -196c11 -31 18 -34 30 -34zM246 -39v230h-99l20 -230h79z
M266 -39h88l20 230h-108v-230zM448 -5l30 196h-84l-20 -230h44c6 0 20 0 30 34zM474 211c12 5 18 10 18 12c0 17 -98 71 -236 71s-236 -54 -236 -71c0 -2 6 -7 18 -12h436z" />
    <glyph glyph-name="uniF116" unicode="&#xf116;" horiz-adv-x="500" 
d="M496 394l-149 32l-7 -16c29 -8 46 -20 46 -32v-3v0c-6 -72 -12 -137 -18 -201s-14 -130 -20 -202v0c-6 -20 -73 -36 -155 -36c-86 0 -155 18 -155 39v2c-13 138 -34 374 -36 395c-1 2 -2 4 -2 6c0 27 86 49 193 49c49 0 94 -5 128 -13l15 34l164 -36zM193 408
c-96 0 -159 -18 -173 -30c14 -12 77 -29 173 -29c40 0 75 3 102 7l18 41c-30 6 -70 11 -120 11zM22 356c2 -23 6 -66 11 -116c27 16 90 27 163 27c20 0 39 0 57 -2l32 71c-27 -4 -59 -6 -92 -6c-74 0 -139 11 -171 26zM264 245l-21 -46c59 4 96 16 108 24
c-10 7 -40 17 -87 22zM222 198l22 48c-15 1 -30 2 -48 2c-87 0 -141 -15 -156 -25c15 -10 69 -25 156 -25h26zM36 204c6 -70 13 -149 19 -211c17 8 47 15 82 18l76 168h-17c-71 0 -132 10 -160 25zM193 -45c71 0 116 12 132 20c-16 8 -61 20 -132 20c-16 0 -31 -1 -44 -2
l-11 -25l-17 8l7 15c-34 -4 -57 -11 -67 -16c16 -8 61 -20 132 -20zM350 175c1 9 1 19 2 28c-24 -11 -67 -20 -118 -23l-76 -167c11 1 23 1 35 1c61 0 112 -9 138 -22c6 65 13 125 19 183zM356 241c4 37 7 76 11 116c-14 -7 -35 -12 -60 -17l-35 -77c37 -4 67 -13 84 -22z
M366 378c-5 4 -16 9 -34 14l-15 -31c26 6 43 12 49 17z" />
    <glyph glyph-name="uniF117" unicode="&#xf117;" horiz-adv-x="351" 
d="M338 429c8 -7 13 -18 13 -29v-425c0 -21 -18 -39 -39 -39s-39 18 -39 39v130c-20 8 -34 27 -34 49v240c0 30 24 54 54 54h4c16 0 31 -7 41 -19zM333 -25v0v127h-42v-127c0 -12 9 -21 21 -21s21 9 21 21zM333 120v280c0 6 -2 12 -7 16l-1 1c-7 8 -17 13 -28 13h-4
c-20 0 -36 -16 -36 -36v-240c0 -16 11 -30 26 -34h50zM97 438c26 0 52 0 67 -36c21 -50 8 -137 7 -141v-2l-1 -2c-1 -1 -14 -20 -42 -30v-252c0 -21 -18 -39 -39 -39s-39 18 -39 39v252c-28 10 -41 29 -42 30l-1 1l-1 2c-1 4 -17 90 5 140c16 38 48 38 71 38h15zM154 266
c2 14 12 88 -6 129c-6 14 -14 20 -25 23v-105h-18v107h-8h-15h-13v-107h-18v104c-10 -3 -17 -10 -23 -24c-18 -41 -6 -114 -4 -127c4 -5 17 -20 43 -26c0 -3 1 -265 1 -265c0 -12 9 -21 21 -21s21 9 21 21v265c26 6 40 21 44 26z" />
    <glyph glyph-name="uniF118" unicode="&#xf118;" horiz-adv-x="303" 
d="M283 347c11 0 20 -10 20 -21s-9 -39 -20 -39l-19 -304c0 -26 -21 -47 -47 -47h-130c-26 0 -47 21 -47 47l-19 304c-11 0 -21 28 -21 39s10 21 21 21h119l-25 96l18 5l26 -101h124zM264 288v3h-225v-3l20 -304v-1v-1c0 -15 13 -27 28 -27h130c15 0 28 12 28 27v1v1z
M280 309c2 5 5 13 5 17c0 1 -1 2 -2 2h-262c-1 0 -2 -1 -2 -2c0 -4 2 -12 4 -17h257zM153 77c-40 0 -72 33 -72 73s32 73 72 73s73 -33 73 -73s-33 -73 -73 -73zM153 204c-30 0 -54 -24 -54 -54s24 -54 54 -54s54 24 54 54s-24 54 -54 54z" />
    <glyph glyph-name="uniF119" unicode="&#xf119;" 
d="M316 389c15 -21 9 -51 -12 -66c-8 -6 -17 -8 -27 -8c-15 0 -29 7 -38 20c-15 21 -10 51 11 66c8 6 17 8 27 8c15 0 30 -7 39 -20zM294 339c13 9 15 26 6 39c-5 8 -14 12 -23 12c-6 0 -11 -2 -16 -5c-13 -9 -16 -26 -7 -39c9 -12 28 -16 40 -7zM400 249
c-15 0 -29 7 -38 20c-7 10 -10 23 -8 35s9 24 19 31c8 6 17 8 27 8c15 0 30 -7 39 -20c15 -21 9 -51 -12 -66c-8 -6 -17 -8 -27 -8zM372 301c-1 -7 1 -15 5 -21c5 -8 14 -12 23 -12c6 0 12 2 17 5c13 9 16 26 7 39c-5 8 -15 12 -24 12c-6 0 -11 -2 -16 -5
c-6 -4 -11 -11 -12 -18zM104 348c2 12 10 23 20 30c8 6 17 9 27 9c15 0 30 -7 39 -20c7 -10 10 -24 8 -36s-10 -23 -20 -30c-8 -6 -17 -9 -27 -9c-15 0 -30 7 -39 20c-7 10 -10 24 -8 36zM135 363c-6 -4 -11 -12 -12 -19s1 -15 5 -21c9 -12 27 -16 39 -7c6 4 11 12 12 19
s-1 15 -5 21c-5 8 -14 12 -23 12c-6 0 -11 -2 -16 -5zM198 156c15 0 30 -7 39 -20c15 -21 10 -51 -11 -66c-8 -6 -18 -9 -28 -9c-15 0 -29 8 -38 21c-7 10 -10 23 -8 35s9 23 19 30c8 6 17 9 27 9zM215 85c13 9 16 27 7 40c-5 8 -15 12 -24 12c-6 0 -11 -2 -16 -5
c-6 -4 -11 -11 -12 -18s1 -16 5 -22c9 -12 28 -16 40 -7zM104 250c15 0 30 -7 39 -20c15 -21 9 -51 -12 -66c-8 -6 -17 -8 -27 -8c-15 0 -30 7 -39 20c-7 10 -10 23 -8 35s10 24 20 31c8 6 17 8 27 8zM120 180c13 9 16 26 7 39c-5 8 -14 13 -23 13c-6 0 -11 -3 -16 -6
c-6 -4 -11 -11 -12 -18s1 -15 5 -21c9 -12 27 -16 39 -7zM218 299c15 0 30 -7 39 -20c7 -10 10 -23 8 -35s-10 -24 -20 -31c-8 -6 -17 -8 -27 -8c-15 0 -30 7 -39 20c-15 21 -9 51 12 66c8 6 17 8 27 8zM246 247c1 7 -1 15 -5 21c-5 8 -14 12 -23 12c-6 0 -11 -2 -16 -5
c-13 -9 -16 -26 -7 -39c9 -12 27 -16 39 -7c6 4 11 11 12 18zM327 154c-15 0 -30 7 -39 20c-7 10 -10 23 -8 35s9 24 19 31c8 6 18 8 28 8c15 0 29 -7 38 -20c15 -21 10 -50 -11 -65c-8 -6 -17 -9 -27 -9zM299 206c-1 -7 0 -15 4 -21c9 -12 28 -16 40 -7c13 9 16 27 7 40
c-5 8 -14 12 -23 12c-6 0 -12 -3 -17 -6c-6 -4 -10 -11 -11 -18zM331 114c15 0 29 -8 38 -21c7 -10 10 -23 8 -35s-9 -23 -19 -30c-8 -6 -17 -9 -27 -9c-15 0 -30 7 -39 20c-15 21 -9 51 12 66c8 6 17 9 27 9zM359 61c1 7 -1 16 -5 22c-5 8 -14 12 -23 12
c-6 0 -12 -2 -17 -5c-13 -9 -16 -27 -7 -40c9 -12 28 -16 40 -7c6 4 11 11 12 18zM472 103c-8 -6 -17 -8 -27 -8c-15 0 -30 7 -39 20c-7 10 -10 23 -8 35s10 24 20 31c8 6 17 8 27 8c15 0 30 -7 39 -20c7 -10 10 -23 8 -35s-10 -24 -20 -31zM422 126c9 -12 27 -16 39 -7
c6 4 11 11 12 18s-1 15 -5 21c-5 8 -14 12 -23 12c-6 0 -11 -2 -16 -5c-6 -4 -11 -11 -12 -18s1 -15 5 -21zM503 40c7 -10 10 -23 8 -35s-9 -24 -19 -31c-8 -6 -17 -8 -27 -8c-15 0 -30 7 -39 20c-7 10 -10 23 -8 35s10 24 20 31c8 6 17 8 27 8c15 0 29 -7 38 -20zM493 8
c1 7 -1 15 -5 21c-5 8 -14 12 -23 12c-6 0 -12 -2 -17 -5c-6 -4 -10 -11 -11 -18s0 -15 4 -21c5 -8 15 -12 24 -12c6 0 11 2 16 5c6 4 11 11 12 18zM70 429c-16 2 -36 -4 -62 -17l-8 17c30 15 53 21 72 19c24 -3 42 -18 55 -44l-17 -9c-10 21 -23 32 -40 34z" />
    <glyph glyph-name="uniF11A" unicode="&#xf11a;" horiz-adv-x="328" 
d="M291 -9c12 -3 22 -14 22 -27c0 -15 -13 -28 -28 -28s-28 13 -28 28c0 11 6 20 15 25l-50 166c-15 -5 -32 -7 -49 -8v-157v0c11 -4 19 -14 19 -26c0 -15 -13 -28 -28 -28s-28 13 -28 28c0 12 8 22 19 26h-1v157c-18 1 -34 3 -50 8l-43 -170c6 -5 10 -13 10 -21
c0 -15 -13 -28 -28 -28s-28 13 -28 28s13 28 28 28h1l42 170c-51 22 -86 65 -86 115c0 54 42 101 101 121c6 29 33 50 63 50s56 -21 62 -50c59 -20 102 -67 102 -121c0 -50 -37 -94 -89 -116zM43 -45c5 0 9 4 9 9s-4 9 -9 9s-10 -4 -10 -9s5 -9 10 -9zM164 429
c-18 0 -34 -11 -41 -26c1 0 2 1 3 1c2 0 5 1 7 1c4 1 8 2 12 2h5c4 0 9 1 13 1h1v0c5 0 10 -1 14 -1h4c4 0 9 -1 13 -2c2 0 4 -1 6 -1c1 0 3 -1 4 -1c-7 15 -23 26 -41 26zM106 380c-46 -15 -79 -49 -86 -89h288c-7 40 -41 74 -87 89l-6 2c-8 2 -16 4 -25 5h-1
c-17 2 -34 2 -51 0v0c-9 -1 -18 -3 -26 -5zM173 -36c0 5 -4 9 -9 9s-10 -4 -10 -9s5 -9 10 -9s9 4 9 9zM164 165c78 0 142 48 145 108h-290c3 -60 67 -108 145 -108zM285 -45c5 0 9 4 9 9s-4 9 -9 9s-9 -4 -9 -9s4 -9 9 -9z" />
    <glyph glyph-name="uniF11B" unicode="&#xf11b;" horiz-adv-x="511" 
d="M255 448c120 0 222 -78 256 -187h-511c34 109 135 187 255 187zM255 429c-100 0 -189 -59 -228 -149h457c-39 90 -129 149 -229 149zM255 -64c-120 0 -221 16 -255 125h511c-34 -109 -136 -125 -256 -125zM255 -45c113 0 192 15 228 87h-455c36 -72 114 -87 227 -87z
M58 228h395c28 0 50 -31 50 -68s-22 -68 -50 -68h-395c-28 0 -50 31 -50 68c0 19 5 36 14 48s22 20 36 20zM186 376c0 14 8 21 22 21s21 -7 21 -21s-7 -22 -21 -22s-22 8 -22 22zM277 376c0 14 8 21 22 21s21 -7 21 -21s-7 -22 -21 -22s-22 8 -22 22zM234 333
c0 14 8 21 22 21s21 -7 21 -21s-7 -22 -21 -22s-22 8 -22 22zM138 333c0 14 7 21 21 21s22 -7 22 -21s-8 -22 -22 -22s-21 8 -21 22zM331 333c0 14 7 21 21 21s22 -7 22 -21s-8 -22 -22 -22s-21 8 -21 22z" />
    <glyph glyph-name="uniF11C" unicode="&#xf11c;" horiz-adv-x="338" 
d="M331 303l7 -2v-308c0 -31 -26 -57 -57 -57h-224c-31 0 -57 26 -57 57v308l6 2c48 17 102 39 109 45c5 5 10 24 14 40h-12v60h103v-60h-11c3 -16 8 -34 14 -40c7 -7 60 -28 108 -45zM136 429v-22h4h12h34h11h4v22h-65zM319 -7v33h-300v-33c0 -21 17 -38 38 -38h224
c21 0 38 17 38 38zM319 45v181h-300v-181h300zM319 245v42c-29 10 -97 36 -109 48c-11 11 -18 38 -21 53h-41c-3 -15 -10 -43 -20 -53c-11 -11 -80 -36 -109 -47v-43h300zM53 100l-9 9l28 28l-28 27l9 9l28 -27l27 27l9 -9l-27 -27l27 -28l-9 -9l-27 28zM141 100l-9 9l28 27
l-28 28l9 9l28 -28l28 28l9 -9l-28 -28l28 -27l-9 -9l-28 27zM229 99l-9 9l28 28l-28 27l9 9l27 -28l28 28l9 -9l-28 -27l28 -28l-9 -9l-28 28z" />
    <glyph glyph-name="uniF11D" unicode="&#xf11d;" 
d="M490 342l-3 -3c20 -36 21 -73 4 -112c-21 -48 -69 -96 -120 -147l-13 -14c-66 -66 -123 -123 -187 -123c-21 0 -42 6 -62 18l-3 -3c-14 -14 -32 -22 -50 -22c-15 0 -29 5 -40 16c-23 23 -20 64 6 90l5 5c-9 18 -15 36 -15 54c0 64 58 121 124 187l13 14
c71 71 132 132 200 132c18 0 35 -4 52 -12l5 4c14 14 33 22 50 22c15 0 29 -5 40 -16c23 -23 20 -64 -6 -90zM149 275c-63 -63 -117 -118 -117 -174c0 -13 3 -27 9 -40l346 346c-12 5 -26 8 -38 8c-60 0 -118 -59 -186 -127zM92 -29l385 385c9 9 15 21 16 33
c1 11 -4 22 -11 29s-16 11 -26 11c-13 0 -26 -6 -36 -16l-385 -385c-9 -9 -15 -21 -16 -33c-1 -11 4 -22 11 -29s16 -11 26 -11c13 0 26 6 36 16zM474 235c14 32 14 61 -1 90l-349 -350c16 -8 31 -13 47 -13c56 0 110 55 173 118l13 13c50 50 97 97 117 142z" />
    <glyph glyph-name="uniF11E" unicode="&#xf11e;" horiz-adv-x="298" 
d="M298 177c0 -34 -27 -62 -61 -64l-89 -177l-88 177c-33 3 -60 30 -60 64c0 19 8 37 22 49c-15 23 -22 50 -22 77c0 80 65 145 145 145s145 -65 145 -145c0 -26 -6 -51 -19 -73c17 -12 27 -32 27 -53zM80 115l68 -137l69 137c-10 3 -18 7 -26 14c-12 -10 -27 -16 -43 -16
c-15 0 -30 5 -42 15c-8 -7 -16 -11 -26 -13zM233 132c25 0 46 20 46 45c0 18 -10 33 -26 41l-10 5l7 9c14 21 21 46 21 71c0 70 -56 126 -126 126s-126 -56 -126 -126c0 -26 8 -52 24 -74l6 -8l-9 -5c-13 -8 -21 -23 -21 -39c0 -25 21 -45 46 -45c13 0 25 6 34 16l7 8l7 -8
c9 -10 22 -16 35 -16c14 0 26 5 35 16l8 9l7 -9c9 -11 21 -16 35 -16zM148 400c52 0 94 -42 94 -93c-6 -1 -13 -1 -19 -1v0c0 41 -33 75 -74 75c0 6 -1 13 -1 19z" />
    <glyph glyph-name="uniF11F" unicode="&#xf11f;" horiz-adv-x="503" 
d="M225 274l-37 37c-6 6 -24 24 -6 42c5 5 10 7 16 7c10 0 19 -7 26 -14l12 -12l18 18c-17 24 -15 57 6 78c11 11 27 18 43 18s31 -7 42 -18s18 -26 18 -42s-7 -32 -18 -43s-26 -18 -42 -18c-13 0 -26 4 -36 12l-18 -18l12 -12c6 -6 24 -24 6 -42c-5 -5 -10 -8 -16 -8
c-10 0 -19 8 -26 15zM273 417c-16 -16 -16 -43 0 -59c8 -8 19 -12 30 -12s21 4 29 12s13 19 13 30s-5 21 -13 29s-18 12 -29 12s-22 -4 -30 -12zM195 340c-3 -3 -5 -5 6 -16l37 -37c6 -6 11 -9 13 -9c1 0 2 1 3 2c3 3 5 5 -6 16l-37 37c-6 6 -11 9 -13 9c-1 0 -2 -1 -3 -2z
M118 170l2 -2c7 -7 10 -15 10 -24s-3 -17 -10 -24s-15 -11 -24 -11s-18 4 -25 11l-12 11l-46 -46l-13 13l46 46l-12 13c-13 13 -13 35 0 48s36 14 49 1c-2 13 2 27 12 37c8 8 18 13 30 13c3 0 5 -1 8 -1v0c-7 7 -10 16 -10 25s3 17 10 24c13 13 36 13 49 0l37 -37
c13 -13 13 -36 0 -49c-7 -7 -16 -10 -25 -10s-17 3 -24 10l-2 2c2 -13 -2 -28 -12 -38c-8 -8 -19 -12 -31 -12h-7zM146 291c-3 -3 -5 -7 -5 -11s2 -9 5 -12l37 -37c6 -6 16 -6 22 0s6 17 0 23l-37 37c-3 3 -7 5 -11 5s-8 -2 -11 -5zM107 133c3 3 4 7 4 11s-1 8 -4 11l-37 37
c-3 3 -8 5 -12 5s-8 -2 -11 -5c-6 -6 -6 -16 0 -22l37 -37c6 -6 17 -6 23 0zM485 281c11 -11 18 -26 18 -42s-7 -32 -18 -43s-27 -18 -43 -18c-13 0 -25 4 -35 12l-28 -27l12 -12c6 -6 25 -24 7 -42c-5 -5 -11 -8 -17 -8c-10 0 -19 7 -26 14l-1 2c2 -13 -2 -27 -12 -37
c-8 -8 -19 -13 -31 -13c-6 0 -12 2 -17 4l8 -9c13 -13 13 -36 0 -49c-7 -7 -15 -10 -24 -10s-17 3 -24 10l-37 38c-7 7 -11 15 -11 24s4 17 11 24c13 13 35 13 48 0l7 -6c-7 16 -4 35 9 48c8 8 18 12 30 12h7c-6 6 -23 24 -6 42c5 5 11 7 17 7c10 0 18 -7 25 -14l12 -12
l28 27c-17 24 -15 57 6 78c11 11 26 18 42 18s32 -7 43 -18zM289 27c6 6 6 16 0 22l-37 37c-3 3 -7 5 -11 5s-8 -2 -11 -5s-5 -7 -5 -11s2 -8 5 -11l37 -37c6 -6 16 -6 22 0zM385 122c3 3 4 5 -7 16l-37 37c-6 6 -10 9 -12 9c-1 0 -3 -1 -4 -2c-3 -3 -4 -5 7 -16l37 -37
c6 -6 10 -9 12 -9c1 0 3 1 4 2zM472 209c8 8 12 19 12 30s-4 21 -12 29s-19 13 -30 13s-21 -5 -29 -13c-16 -16 -16 -43 0 -59c8 -8 18 -12 29 -12s22 4 30 12zM213 38l37 -37c7 -7 10 -16 10 -25s-3 -17 -10 -24s-15 -10 -24 -10s-18 3 -25 10l-16 16l-32 -32l-13 13l32 32
l-8 8c-13 13 -13 36 0 49s36 13 49 0zM237 -35c3 3 5 7 5 11s-2 9 -5 12l-37 37c-3 3 -7 4 -11 4s-9 -1 -12 -4c-6 -6 -6 -17 0 -23l38 -37c6 -6 16 -6 22 0z" />
    <glyph glyph-name="uniF120" unicode="&#xf120;" horiz-adv-x="326" 
d="M325 405c0 -1 1 -2 1 -3v-41h-20l-24 -425h-237l-23 425h-22v41v3c1 0 1 -1 2 -1c27 0 50 19 56 44h210c6 -25 28 -44 55 -44c1 0 1 1 2 1zM265 -46l8 151h-219l8 -151h203zM275 124l7 124h-236l7 -124h222zM283 266l5 95h-247l5 -95h237zM307 379v9c-23 5 -42 21 -52 42
h-184c-10 -21 -30 -37 -53 -42v-9h289zM130 394v18h67v-18h-67z" />
    <glyph glyph-name="uniF121" unicode="&#xf121;" horiz-adv-x="511" 
d="M306 448c113 0 205 -92 205 -205s-92 -205 -205 -205c-50 0 -96 18 -132 48l-161 -150l-13 14l160 149c-37 37 -59 88 -59 144c0 113 92 205 205 205zM119 243c0 -90 65 -166 151 -183c-65 24 -112 87 -112 160c0 94 77 170 171 170c73 0 135 -46 159 -111
c-17 86 -92 150 -182 150c-103 0 -187 -83 -187 -186zM313 194c-28 0 -51 22 -53 50c-1 -4 -1 -8 -1 -12c0 -37 30 -68 67 -68s68 31 68 68s-31 67 -68 67v0c23 -6 40 -27 40 -52c0 -29 -24 -53 -53 -53zM279 247c0 -19 15 -34 34 -34s34 15 34 34s-15 35 -34 35
s-34 -16 -34 -35zM326 318c48 0 87 -38 87 -86v11c0 59 -48 108 -107 108s-108 -49 -108 -108s49 -108 108 -108c25 0 47 9 65 23c-13 -8 -29 -13 -45 -13c-48 0 -86 39 -86 87s38 86 86 86zM329 69c83 0 151 68 151 151s-68 151 -151 151c-8 0 -16 0 -23 -1
c70 0 126 -57 126 -127s-56 -127 -126 -127s-127 56 -127 126c-1 -7 -2 -14 -2 -22c0 -83 69 -151 152 -151z" />
    <glyph glyph-name="uniF122" unicode="&#xf122;" horiz-adv-x="468" 
d="M243 127v-173h101v-18h-221v18h102v173l-225 210h322l18 30c-7 7 -11 16 -11 27c0 20 17 37 37 37c4 0 7 -1 11 -2l11 19l16 -9l-11 -20c6 -7 10 -15 10 -25c0 -20 -17 -37 -37 -37c-3 0 -6 0 -9 1l-13 -21h124zM333 318l-50 -83h49l90 83h-89zM47 318l90 -83h125l49 83
h-264zM156 216l78 -72l78 72h-40l-30 -51l-16 9l25 42h-95z" />
    <glyph glyph-name="uniF123" unicode="&#xf123;" 
d="M256 448c141 0 256 -115 256 -256s-115 -256 -256 -256s-256 115 -256 256s115 256 256 256zM256 -45c131 0 237 106 237 237s-106 237 -237 237s-237 -106 -237 -237s106 -237 237 -237zM256 391c109 0 197 -88 197 -197s-88 -197 -197 -197s-197 88 -197 197
s88 197 197 197zM123 313c-27 -30 -43 -68 -45 -110h155zM78 185c2 -43 19 -81 46 -111l111 111h-157zM247 16v155l-110 -110c30 -26 68 -43 110 -45zM247 216v156c-43 -2 -80 -18 -110 -45zM434 203c-2 42 -19 81 -45 110l-109 -110h154zM266 372v-156l110 110
c-29 27 -68 44 -110 46zM266 16c42 2 80 20 109 46l-109 109v-155zM388 75c27 30 44 68 46 110h-156z" />
    <glyph glyph-name="uniF124" unicode="&#xf124;" horiz-adv-x="453" 
d="M396 448c31 0 57 -26 57 -57v-42v-57v-268c0 -30 -23 -55 -52 -57c3 -3 4 -7 4 -12c0 -10 -9 -19 -19 -19s-18 9 -18 19c0 5 1 9 4 12h-292c3 -3 4 -7 4 -12c0 -10 -8 -19 -18 -19s-19 9 -19 19c0 5 1 9 4 12c-29 3 -51 28 -51 57v268v57v42c0 31 26 57 57 57h339z
M19 279v-180h348l-179 180h-169zM434 24v0v56h-47h-1v0h-367v-56c0 -21 17 -38 38 -38h339c21 0 38 17 38 38zM434 99v180h-138l69 -69l-13 -14l-83 83h-54l179 -180h40zM434 297v33h-415v-33h415zM434 349v42c0 21 -17 38 -38 38h-339c-21 0 -38 -17 -38 -38v-42h415z
M66 389c0 13 5 19 18 19s19 -6 19 -19s-6 -19 -19 -19s-18 6 -18 19zM160 389c0 13 6 19 19 19s19 -6 19 -19s-6 -19 -19 -19s-19 6 -19 19zM254 389c0 13 6 19 19 19s19 -6 19 -19s-6 -19 -19 -19s-19 6 -19 19zM349 389c0 13 6 19 19 19s18 -6 18 -19s-5 -19 -18 -19
s-19 6 -19 19z" />
    <glyph glyph-name="uniF125" unicode="&#xf125;" 
d="M458 176c29 2 54 -22 54 -51c0 -14 -6 -27 -15 -36l-36 -97s-20 -46 -45 -46h-320c-25 0 -46 46 -46 46l-36 99c-9 9 -14 21 -14 34c0 28 23 51 51 51v0c25 52 97 106 204 106s178 -54 203 -106zM444 -1l37 99h-451l37 -99c8 -17 22 -34 29 -34h320c7 0 21 18 28 34z
M492 117c1 3 2 5 2 8c0 20 -18 36 -39 32l-8 -2l-3 8c-20 50 -91 101 -189 101s-170 -51 -190 -101l-3 -7l-7 1c-2 0 -3 1 -4 1c-18 0 -33 -15 -33 -33c0 -3 1 -5 2 -8h472zM246 183c0 15 4 23 11 23s11 -8 11 -23s-4 -22 -11 -22s-11 7 -11 22zM346 186c-5 -5 -14 -2 -24 8
s-13 18 -8 23s14 2 24 -8s13 -18 8 -23zM192 194c-10 -10 -19 -13 -24 -8s-2 13 8 23s19 13 24 8s2 -13 -8 -23zM252 369c-9 7 -22 17 -24 37c-2 30 23 41 36 42l2 -18l-1 9l1 -9c-4 0 -21 -4 -20 -23c1 -12 9 -17 17 -24c8 -6 19 -14 19 -29c0 -27 -28 -43 -29 -44l-10 15
c6 3 20 16 20 29c0 5 -3 9 -11 15zM307 369c-9 7 -22 17 -24 37c-2 30 23 41 36 42l1 -18v9l1 -9c-4 0 -21 -4 -20 -23c1 -12 9 -17 17 -24c8 -6 18 -14 18 -29c0 -27 -28 -43 -29 -44l-9 15c6 3 20 16 20 29c0 5 -3 9 -11 15zM197 369c-9 7 -22 17 -24 37
c-2 30 23 41 36 42l2 -18l-1 9l1 -9c-4 0 -20 -4 -19 -23c1 -12 8 -17 16 -24c8 -6 19 -14 19 -29c0 -27 -28 -43 -29 -44l-10 15c6 3 21 16 21 29c0 5 -4 9 -12 15z" />
    <glyph glyph-name="uniF126" unicode="&#xf126;" horiz-adv-x="456" 
d="M225 448c178 0 231 -111 231 -111l-233 -401l-223 401s47 111 225 111zM224 -23l177 304c-14 17 -73 79 -173 79c-105 0 -163 -69 -173 -81zM228 380c101 0 161 -56 183 -80l22 37c-17 25 -73 91 -208 91s-188 -67 -202 -91l22 -39c20 24 81 82 183 82zM142 272
c0 22 11 34 33 34s34 -12 34 -34s-12 -33 -34 -33s-33 11 -33 33zM265 239c0 22 12 33 34 33s33 -11 33 -33s-11 -34 -33 -34s-34 12 -34 34zM188 125c0 22 12 34 34 34s34 -12 34 -34s-12 -33 -34 -33s-34 11 -34 33z" />
    <glyph glyph-name="uniF127" unicode="&#xf127;" horiz-adv-x="330" 
d="M330 403v0v-411c0 -37 -83 -56 -165 -56s-165 19 -165 56v411v3h1c7 24 78 42 164 42c89 0 162 -20 165 -45zM165 429c-87 0 -135 -18 -145 -27c9 -9 50 -25 124 -28c-4 11 -11 21 -3 29c22 22 82 16 112 -14c2 -2 5 -4 7 -6c28 6 45 14 50 19c-10 10 -58 27 -145 27z
M312 -8v118l-4 4c-2 -2 -2 -4 -2 -6c1 -3 3 -5 4 -5c-1 0 -9 1 -52 -9c-21 -5 -35 -7 -47 -7c-21 0 -33 8 -57 26c-8 6 -19 13 -32 22c-56 38 -98 -11 -104 -18v-125c0 -15 57 -38 147 -38s147 23 147 38zM312 121v99l-4 4c-2 -2 -2 -5 -2 -7c1 -3 3 -5 4 -5
c-1 0 -9 2 -52 -8c-21 -5 -35 -8 -47 -8c-21 0 -33 8 -57 26c-8 6 -19 14 -32 23c-56 38 -98 -12 -104 -19v-83c21 18 63 41 114 7c14 -9 24 -17 33 -23c34 -25 37 -27 89 -15c32 8 49 10 58 9zM312 230v150c-27 -15 -83 -25 -147 -25s-120 10 -147 25v-128
c21 18 63 42 114 8c14 -9 24 -17 33 -23c34 -25 37 -28 89 -16c32 8 49 10 58 9z" />
    <glyph glyph-name="uniF128" unicode="&#xf128;" horiz-adv-x="504" 
d="M0 193h504c-5 -97 -41 -257 -252 -257s-247 160 -252 257zM252 -46c141 0 219 75 232 221h-464c13 -146 91 -221 232 -221zM138 290c0 21 9 36 17 48s15 22 15 39c0 34 -25 58 -25 58l12 13c1 -1 31 -29 31 -71c0 -22 -9 -37 -17 -49s-14 -22 -14 -38
c0 -33 17 -50 18 -51l-12 -13c-1 1 -25 23 -25 64zM193 290c0 21 9 36 17 48s15 22 15 39c0 34 -25 58 -25 58l12 13c1 -1 31 -29 31 -71c0 -22 -9 -37 -17 -49s-14 -22 -14 -38c0 -33 17 -50 18 -51l-12 -13c-1 1 -25 23 -25 64zM248 290c0 21 10 36 18 48s14 22 14 39
c0 34 -25 58 -25 58l13 13c1 -1 30 -29 30 -71c0 -22 -9 -37 -17 -49s-14 -22 -14 -38c0 -33 18 -50 19 -51l-13 -13c-1 1 -25 23 -25 64zM304 290c0 21 9 36 17 48s14 22 14 39c0 34 -25 58 -25 58l13 13c1 -1 30 -29 30 -71c0 -22 -9 -37 -17 -49s-14 -22 -14 -38
c0 -33 18 -50 19 -51l-13 -13c-1 1 -24 23 -24 64z" />
    <glyph glyph-name="uniF129" unicode="&#xf129;" horiz-adv-x="467" 
d="M464 408c17 -44 -35 -139 -108 -249c-71 -107 -46 -223 -101 -223h-5c-61 7 -143 161 -200 253s-65 228 -25 244c25 10 93 15 168 15c121 0 261 -13 271 -40zM341 170c30 46 121 183 106 230c-14 13 -109 29 -254 29c-77 0 -140 -6 -161 -14c-2 -1 -5 -4 -8 -13
c-14 -42 0 -135 42 -203c9 -15 19 -31 29 -48c45 -76 115 -191 157 -196h3c12 0 17 19 27 62c9 42 23 99 59 153zM212 388c167 -19 167 -30 167 -39c0 -16 -14 -29 -30 -29h-108c0 -21 0 -57 1 -95c3 -149 2 -172 -5 -179l-2 -2l-5 -1c-9 0 -15 0 -32 126
c-8 58 -13 120 -15 151h-103c-16 0 -29 13 -29 29c0 9 4 16 79 28c36 6 75 11 81 11h1zM349 338c4 0 8 3 10 7c-18 6 -86 17 -148 24c-15 0 -119 -15 -141 -24c2 -4 5 -7 10 -7h120l1 -9c1 -40 13 -147 24 -214c0 34 -1 77 -2 110c-1 44 -2 85 -1 104l1 9h126z" />
    <glyph glyph-name="uniF12A" unicode="&#xf12a;" 
d="M509 167l3 -10l-10 -1s-6 -1 -14 -1c-19 0 -56 3 -87 24c-2 1 -3 3 -5 4c23 -52 28 -115 -27 -170c-50 -50 -121 -70 -185 -70c-61 0 -116 17 -143 44c-55 55 -65 224 33 322c33 33 68 45 101 45v0v-18c-32 0 -63 -14 -89 -40c-55 -55 -66 -127 -68 -165
c-2 -55 12 -107 36 -131c23 -23 76 -39 130 -39c69 0 132 24 173 65c37 37 46 82 29 133s-56 93 -68 105c-17 17 -77 72 -143 72v18c33 0 64 -12 91 -28l-3 9c-19 49 -2 101 -1 103l4 10l9 -5c2 -1 51 -27 70 -76c14 -36 8 -73 4 -91h1s6 1 14 1c19 0 56 -4 87 -25
c43 -30 57 -83 58 -85zM331 281c4 17 9 50 -3 80s-38 50 -52 60c-4 -17 -8 -49 4 -79s37 -51 51 -61zM411 194c27 -18 60 -20 77 -20c-6 16 -20 45 -47 63s-61 21 -77 21c6 -16 20 -46 47 -64zM69 23c0 12 6 19 18 19s19 -7 19 -19s-7 -19 -19 -19s-18 7 -18 19zM106 155
c0 12 7 19 19 19s18 -7 18 -19s-6 -18 -18 -18s-19 6 -19 18zM45 115c0 12 6 19 18 19s19 -7 19 -19s-7 -18 -19 -18s-18 6 -18 18zM72 219c0 12 6 19 18 19s19 -7 19 -19s-7 -19 -19 -19s-18 7 -18 19zM133 293c0 12 7 19 19 19s18 -7 18 -19s-6 -18 -18 -18s-19 6 -19 18z
M142 228c0 12 7 19 19 19s19 -7 19 -19s-7 -18 -19 -18s-19 6 -19 18zM207 266c0 12 7 18 19 18s19 -6 19 -18s-7 -19 -19 -19s-19 7 -19 19zM114 80c0 12 7 18 19 18s19 -6 19 -18s-7 -19 -19 -19s-19 7 -19 19z" />
    <glyph glyph-name="uniF12B" unicode="&#xf12b;" 
d="M133 146c56 0 117 -13 117 -43l-1 -2h1l-1 -115c0 -1 1 -4 1 -5c0 -30 -61 -43 -117 -43s-117 13 -117 43v126h1c6 26 63 39 116 39zM133 -43c29 0 52 3 68 8c-60 6 -118 30 -121 99c-18 3 -34 8 -45 14v-97c0 -7 33 -24 98 -24zM231 -18v96c-22 -12 -61 -19 -98 -19
c-11 0 -24 1 -35 2c4 -52 48 -78 133 -79zM133 78c65 0 98 18 98 25s-33 24 -98 24s-98 -17 -98 -24s33 -25 98 -25zM512 195v0v-116v-4c0 -30 -61 -44 -117 -44s-116 14 -116 44v126v-1c6 26 63 39 116 39c56 0 117 -13 117 -43v-1zM395 50c29 0 53 3 69 8
c-60 6 -119 30 -122 99c-18 3 -34 8 -45 14v-96c0 -7 33 -25 98 -25zM493 75v96c-22 -12 -61 -18 -98 -18c-11 0 -23 0 -34 1c4 -52 47 -78 132 -79zM395 171c65 0 98 18 98 25s-33 24 -98 24s-98 -17 -98 -24s33 -25 98 -25zM0 356l4 15l369 -102l-5 -15zM212 437l12 11
l177 -181l-11 -11zM103 103c0 6 10 9 30 9s30 -3 30 -9s-10 -10 -30 -10s-30 4 -30 10zM366 196c0 6 9 9 29 9s30 -3 30 -9s-10 -10 -30 -10s-29 4 -29 10z" />
    <glyph glyph-name="uniF12C" unicode="&#xf12c;" horiz-adv-x="508" 
d="M339 372c98 -27 169 -102 169 -203c0 -129 -114 -233 -254 -233s-254 104 -254 233c0 98 66 171 159 200l-14 59l72 -21l37 41l36 -39l62 21zM223 386l-53 16l6 -28c24 6 51 10 78 10c23 0 46 -2 67 -7l6 25l-42 -14l-31 33zM254 -46c130 0 235 97 235 215
c0 114 -99 196 -235 196s-236 -82 -236 -196c0 -118 106 -215 236 -215zM51 160c0 96 75 163 174 178v-15c-94 -15 -158 -79 -158 -163v-10c-5 0 -11 1 -16 1v9z" />
    <glyph glyph-name="uniF12D" unicode="&#xf12d;" 
d="M375 126h137v-19h-512v19h164v1h-6c-44 8 -75 60 -86 103l-20 125c-3 0 -6 0 -10 1c-10 2 -17 5 -20 10c-4 5 -5 14 -5 23c1 10 5 18 11 22c7 5 16 7 22 8c2 8 6 19 14 25c12 8 27 4 37 -10c5 -8 6 -24 6 -34l62 -34c21 35 53 65 113 74c15 2 30 2 45 -1
c94 -17 156 -131 158 -203c1 -58 -35 -95 -110 -110zM162 146c4 -1 112 -9 131 -9c157 3 174 57 173 98c-1 64 -58 171 -142 186c-13 2 -26 2 -39 0c-53 -8 -81 -33 -100 -64l15 -8c37 -18 81 -50 89 -103c-5 -7 -12 -14 -18 -21v8c-2 51 -44 82 -79 100l-105 56l1 6
c1 12 0 25 -2 28c-3 5 -8 8 -11 6c-4 -2 -7 -13 -8 -19l-1 -8h-7c-5 0 -16 -3 -21 -6c-1 -1 -2 -3 -2 -8s0 -10 1 -11c0 0 2 -1 8 -2c7 -1 15 -2 15 -2h8l22 -139c9 -36 35 -81 72 -88z" />
    <glyph glyph-name="uniF12E" unicode="&#xf12e;" 
d="M512 448v0c0 -141 -115 -256 -256 -256s-256 115 -256 256v0h431h19h62zM87 429h-6c9 -88 84 -157 175 -157s166 69 175 157h-1h-343zM256 210c125 0 228 97 237 219h-44c-9 -99 -92 -175 -193 -175s-184 76 -193 175h-44c10 -122 112 -219 237 -219zM237 369
c0 25 5 37 17 37s18 -12 18 -37s-6 -37 -18 -37s-17 12 -17 37zM307 407c8 8 20 4 38 -14s22 -31 14 -39s-20 -4 -38 14s-22 31 -14 39zM166 392c18 18 31 22 39 14s4 -21 -14 -39s-31 -22 -39 -14s-4 21 14 39z" />
    <glyph glyph-name="uniF12F" unicode="&#xf12f;" 
d="M505 182c-2 -2 -57 -54 -126 -54c-1 0 -1 1 -2 1c21 -13 34 -25 35 -26l8 -7l-8 -7c-2 -2 -57 -53 -126 -53h-9c24 -13 39 -27 40 -28l7 -7l-7 -7c-2 -2 -57 -53 -126 -53c-67 0 -121 48 -126 53v0l-1 1c-25 -26 -42 -46 -48 -56l-16 10c6 11 26 32 52 59
c-14 17 -47 64 -47 119c0 69 51 125 53 127l7 7l6 -7c1 -1 15 -17 29 -41v9c0 69 51 124 53 126l7 8l7 -8c1 -1 13 -14 26 -35c0 1 -1 1 -1 2c0 69 52 124 54 126l6 7l7 -7c2 -2 51 -55 53 -123c8 16 19 33 33 47c49 49 124 52 127 52h9v-9c0 -3 -3 -78 -52 -127
c-14 -14 -31 -26 -47 -33c68 -2 121 -51 123 -53l7 -7zM358 352c-34 -34 -44 -83 -46 -104c21 2 70 12 104 46s44 83 46 104c-21 -3 -70 -12 -104 -46zM252 420c-13 -17 -41 -57 -41 -105s28 -89 41 -106c13 17 42 58 42 106s-29 88 -42 105zM220 222c0 -22 -5 -42 -12 -60
c12 11 23 22 33 32c-5 6 -13 16 -21 30v-2zM254 180c-16 -15 -32 -30 -49 -46c22 12 50 22 81 22h2c-18 11 -30 20 -34 24zM160 328c-13 -17 -42 -58 -42 -106s29 -89 42 -106c13 17 42 58 42 106s-29 89 -42 106zM160 89v0l-1 1c-19 -18 -37 -36 -54 -53c22 13 53 24 86 24
h9c-23 13 -38 26 -40 28zM125 127c0 -20 -5 -39 -11 -56c11 11 22 21 33 32c-6 7 -15 19 -23 34c0 -3 1 -7 1 -10zM65 22l1 1c14 18 40 58 40 104c0 48 -28 89 -41 106c-13 -17 -42 -58 -42 -106c0 -47 29 -88 42 -105zM297 1c-17 13 -58 42 -106 42s-89 -29 -106 -42
c17 -13 58 -42 106 -42s89 29 106 42zM392 96c-17 13 -58 42 -106 42s-89 -29 -106 -42c17 -13 58 -42 106 -42s89 29 106 42zM273 188c17 -13 58 -41 106 -41s88 28 105 41c-17 13 -57 42 -105 42s-89 -29 -106 -42z" />
    <glyph glyph-name="uniF130" unicode="&#xf130;" horiz-adv-x="176" 
d="M124 318c16 -5 52 -22 52 -79v-249c0 -30 -24 -54 -54 -54h-68c-30 0 -54 24 -54 54v249c0 56 36 74 52 79v73h-13v57h97v-57h-12v-73zM57 430v-21h4h9h36h9h3v21h-61zM158 -10v130h-140v-130c0 -20 16 -36 36 -36h68c20 0 36 16 36 36zM158 138v82h-140v-82h140z
M158 238v1c0 57 -42 63 -44 63l-8 1v8v80h-36v-71h18v-18h-26c-4 -1 -44 -9 -44 -63v-1h140z" />
    <glyph glyph-name="uniF131" unicode="&#xf131;" horiz-adv-x="314" 
d="M0 448h314v-168c0 -84 -66 -118 -148 -120v-206h99v-18h-219v18h102v206c-82 2 -148 36 -148 120v168zM296 280v24h-278v-24c0 -89 87 -102 139 -102s139 13 139 102zM296 322v108h-278v-108h278z" />
    <glyph glyph-name="uniF132" unicode="&#xf132;" horiz-adv-x="314" 
d="M314 216c0 -84 -66 -134 -148 -138v-124h99v-18h-219v18h102v124c-82 4 -148 54 -148 138l37 232h240zM52 430l-31 -199h272l-31 199h-210zM157 96c39 0 74 11 99 32s39 51 40 85h-278c1 -34 15 -64 40 -85s60 -32 99 -32z" />
  </font>
</defs>
</svg>
